  0
SECTION
  2
HEADER
  9
$ACADVER
  1
AC1015
  9
$ACADMAINTVER
 70
     6
  9
$DWGCODEPAGE
  3
ANSI_1252
  9
$INSBASE
 10
0.0
 20
0.0
 30
0.0
  9
$EXTMIN
 10
5116.199298947227
 20
738.1925014954597
 30
0.0
  9
$EXTMAX
 10
5671.199298947227
 20
1139.19250149546
 30
0.0
  9
$LIMMIN
 10
0.0
 20
0.0
  9
$LIMMAX
 10
12.0
 20
9.0
  9
$ORTHOMODE
 70
     0
  9
$REGENMODE
 70
     1
  9
$FILLMODE
 70
     1
  9
$QTEXTMODE
 70
     0
  9
$MIRRTEXT
 70
     1
  9
$LTSCALE
 40
1.0
  9
$ATTMODE
 70
     1
  9
$TEXTSIZE
 40
0.2
  9
$TRACEWID
 40
0.05
  9
$TEXTSTYLE
  7
Standard
  9
$CLAYER
  8
0
  9
$CELTYPE
  6
ByLayer
  9
$CECOLOR
 62
   256
  9
$CELTSCALE
 40
1.0
  9
$DISPSILH
 70
     0
  9
$DIMSCALE
 40
1.0
  9
$DIMASZ
 40
0.18
  9
$DIMEXO
 40
0.0625
  9
$DIMDLI
 40
0.38
  9
$DIMRND
 40
0.0
  9
$DIMDLE
 40
0.0
  9
$DIMEXE
 40
0.18
  9
$DIMTP
 40
0.0
  9
$DIMTM
 40
0.0
  9
$DIMTXT
 40
0.18
  9
$DIMCEN
 40
0.09
  9
$DIMTSZ
 40
0.0
  9
$DIMTOL
 70
     0
  9
$DIMLIM
 70
     0
  9
$DIMTIH
 70
     1
  9
$DIMTOH
 70
     1
  9
$DIMSE1
 70
     0
  9
$DIMSE2
 70
     0
  9
$DIMTAD
 70
     0
  9
$DIMZIN
 70
     0
  9
$DIMBLK
  1

  9
$DIMASO
 70
     1
  9
$DIMSHO
 70
     1
  9
$DIMPOST
  1

  9
$DIMAPOST
  1

  9
$DIMALT
 70
     0
  9
$DIMALTD
 70
     2
  9
$DIMALTF
 40
25.4
  9
$DIMLFAC
 40
1.0
  9
$DIMTOFL
 70
     0
  9
$DIMTVP
 40
0.0
  9
$DIMTIX
 70
     0
  9
$DIMSOXD
 70
     0
  9
$DIMSAH
 70
     0
  9
$DIMBLK1
  1

  9
$DIMBLK2
  1

  9
$DIMSTYLE
  2
Standard
  9
$DIMCLRD
 70
     0
  9
$DIMCLRE
 70
     0
  9
$DIMCLRT
 70
     0
  9
$DIMTFAC
 40
1.0
  9
$DIMGAP
 40
0.09
  9
$DIMJUST
 70
     0
  9
$DIMSD1
 70
     0
  9
$DIMSD2
 70
     0
  9
$DIMTOLJ
 70
     1
  9
$DIMTZIN
 70
     0
  9
$DIMALTZ
 70
     0
  9
$DIMALTTZ
 70
     0
  9
$DIMUPT
 70
     0
  9
$DIMDEC
 70
     4
  9
$DIMTDEC
 70
     4
  9
$DIMALTU
 70
     2
  9
$DIMALTTD
 70
     2
  9
$DIMTXSTY
  7
Standard
  9
$DIMAUNIT
 70
     0
  9
$DIMADEC
 70
     0
  9
$DIMALTRND
 40
0.0
  9
$DIMAZIN
 70
     0
  9
$DIMDSEP
 70
    46
  9
$DIMATFIT
 70
     3
  9
$DIMFRAC
 70
     0
  9
$DIMLDRBLK
  1

  9
$DIMLUNIT
 70
     2
  9
$DIMLWD
 70
    -2
  9
$DIMLWE
 70
    -2
  9
$DIMTMOVE
 70
     0
  9
$LUNITS
 70
     2
  9
$LUPREC
 70
     4
  9
$SKETCHINC
 40
0.1
  9
$FILLETRAD
 40
0.5
  9
$AUNITS
 70
     0
  9
$AUPREC
 70
     0
  9
$MENU
  1
.
  9
$ELEVATION
 40
0.0
  9
$PELEVATION
 40
0.0
  9
$THICKNESS
 40
0.0
  9
$LIMCHECK
 70
     0
  9
$CHAMFERA
 40
0.5
  9
$CHAMFERB
 40
0.5
  9
$CHAMFERC
 40
1.0
  9
$CHAMFERD
 40
0.0
  9
$SKPOLY
 70
     0
  9
$TDCREATE
 40
2456238.437757639
  9
$TDUCREATE
 40
2456238.396090972
  9
$TDUPDATE
 40
2456238.43775765
  9
$TDUUPDATE
 40
2456238.396090984
  9
$TDINDWG
 40
0.0000000116
  9
$TDUSRTIMER
 40
0.0000000116
  9
$USRTIMER
 70
     1
  9
$ANGBASE
 50
0.0
  9
$ANGDIR
 70
     0
  9
$PDMODE
 70
     0
  9
$PDSIZE
 40
0.0
  9
$PLINEWID
 40
0.0
  9
$SPLFRAME
 70
     0
  9
$SPLINETYPE
 70
     6
  9
$SPLINESEGS
 70
     8
  9
$HANDSEED
  5
296
  9
$SURFTAB1
 70
     6
  9
$SURFTAB2
 70
     6
  9
$SURFTYPE
 70
     6
  9
$SURFU
 70
     6
  9
$SURFV
 70
     6
  9
$UCSBASE
  2

  9
$UCSNAME
  2

  9
$UCSORG
 10
0.0
 20
0.0
 30
0.0
  9
$UCSXDIR
 10
1.0
 20
0.0
 30
0.0
  9
$UCSYDIR
 10
0.0
 20
1.0
 30
0.0
  9
$UCSORTHOREF
  2

  9
$UCSORTHOVIEW
 70
     0
  9
$UCSORGTOP
 10
0.0
 20
0.0
 30
0.0
  9
$UCSORGBOTTOM
 10
0.0
 20
0.0
 30
0.0
  9
$UCSORGLEFT
 10
0.0
 20
0.0
 30
0.0
  9
$UCSORGRIGHT
 10
0.0
 20
0.0
 30
0.0
  9
$UCSORGFRONT
 10
0.0
 20
0.0
 30
0.0
  9
$UCSORGBACK
 10
0.0
 20
0.0
 30
0.0
  9
$PUCSBASE
  2

  9
$PUCSNAME
  2

  9
$PUCSORG
 10
0.0
 20
0.0
 30
0.0
  9
$PUCSXDIR
 10
1.0
 20
0.0
 30
0.0
  9
$PUCSYDIR
 10
0.0
 20
1.0
 30
0.0
  9
$PUCSORTHOREF
  2

  9
$PUCSORTHOVIEW
 70
     0
  9
$PUCSORGTOP
 10
0.0
 20
0.0
 30
0.0
  9
$PUCSORGBOTTOM
 10
0.0
 20
0.0
 30
0.0
  9
$PUCSORGLEFT
 10
0.0
 20
0.0
 30
0.0
  9
$PUCSORGRIGHT
 10
0.0
 20
0.0
 30
0.0
  9
$PUCSORGFRONT
 10
0.0
 20
0.0
 30
0.0
  9
$PUCSORGBACK
 10
0.0
 20
0.0
 30
0.0
  9
$USERI1
 70
     0
  9
$USERI2
 70
     0
  9
$USERI3
 70
     0
  9
$USERI4
 70
     0
  9
$USERI5
 70
     0
  9
$USERR1
 40
18.0
  9
$USERR2
 40
0.0
  9
$USERR3
 40
0.0
  9
$USERR4
 40
0.0
  9
$USERR5
 40
0.0
  9
$WORLDVIEW
 70
     1
  9
$SHADEDGE
 70
     3
  9
$SHADEDIF
 70
    70
  9
$TILEMODE
 70
     1
  9
$MAXACTVP
 70
    64
  9
$PINSBASE
 10
0.0
 20
0.0
 30
0.0
  9
$PLIMCHECK
 70
     0
  9
$PEXTMIN
 10
1.00000000000000E+20
 20
1.00000000000000E+20
 30
1.00000000000000E+20
  9
$PEXTMAX
 10
-1.00000000000000E+20
 20
-1.00000000000000E+20
 30
-1.00000000000000E+20
  9
$PLIMMIN
 10
0.0
 20
0.0
  9
$PLIMMAX
 10
12.0
 20
9.0
  9
$UNITMODE
 70
     0
  9
$VISRETAIN
 70
     1
  9
$PLINEGEN
 70
     0
  9
$PSLTSCALE
 70
     1
  9
$TREEDEPTH
 70
  3020
  9
$CMLSTYLE
  2
Standard
  9
$CMLJUST
 70
     0
  9
$CMLSCALE
 40
1.0
  9
$PROXYGRAPHICS
 70
     1
  9
$MEASUREMENT
 70
     1
  9
$CELWEIGHT
370
    -1
  9
$ENDCAPS
280
     0
  9
$JOINSTYLE
280
     0
  9
$LWDISPLAY
290
     0
  9
$INSUNITS
 70
     1
  9
$HYPERLINKBASE
  1

  9
$STYLESHEET
  1

  9
$XEDIT
290
     1
  9
$CEPSNTYPE
380
     0
  9
$PSTYLEMODE
290
     1
  9
$FINGERPRINTGUID
  2
{7D4077DB-7A0B-4228-A5BA-9D660189589B}
  9
$VERSIONGUID
  2
{FAEB1C32-E019-11D5-929B-00C0DF256EC4}
  9
$EXTNAMES
290
     1
  9
$PSVPSCALE
 40
0.0
  9
$OLESTARTUP
290
     0
  0
ENDSEC
  0
SECTION
  2
CLASSES
  0
CLASS
  1
ACDBDICTIONARYWDFLT
  2
AcDbDictionaryWithDefault
  3
ObjectDBX Classes
 90
        0
280
     0
281
     0
  0
CLASS
  1
VISUALSTYLE
  2
AcDbVisualStyle
  3
ObjectDBX Classes
 90
     4095
280
     0
281
     0
  0
CLASS
  1
MATERIAL
  2
AcDbMaterial
  3
ObjectDBX Classes
 90
     1153
280
     0
281
     0
  0
CLASS
  1
SCALE
  2
AcDbScale
  3
ObjectDBX Classes
 90
     1153
280
     0
281
     0
  0
CLASS
  1

  2
exOdDbPolyline
  3

 90
        0
280
     0
281
     1
  0
CLASS
  1

  2
exOdDbCircle
  3

 90
        0
280
     0
281
     1
  0
CLASS
  1

  2
exOdDbSpline
  3

 90
        0
280
     0
281
     1
  0
CLASS
  1
DICTIONARYVAR
  2
AcDbDictionaryVar
  3
ObjectDBX Classes
 90
        0
280
     0
281
     0
  0
CLASS
  1
ACDBPLACEHOLDER
  2
AcDbPlaceHolder
  3
ObjectDBX Classes
 90
        0
280
     0
281
     0
  0
CLASS
  1
LAYOUT
  2
AcDbLayout
  3
ObjectDBX Classes
 90
        0
280
     0
281
     0
  0
ENDSEC
  0
SECTION
  2
TABLES
  0
TABLE
  2
VPORT
  5
8
330
0
100
AcDbSymbolTable
 70
     1
  0
VPORT
  5
29
330
8
100
AcDbSymbolTableRecord
100
AcDbViewportTableRecord
  2
*Active
 70
     0
 10
0.0
 20
0.0
 11
1.0
 21
1.0
 12
5393.699298947227
 22
938.6925014954599
 13
0.0
 23
0.0
 14
0.5
 24
0.5
 15
0.5
 25
0.5
 16
0.0
 26
0.0
 36
1.0
 17
0.0
 27
0.0
 37
0.0
 40
441.1000000000003
 41
1.60267857142857
 42
50.0
 43
0.0
 44
0.0
 50
0.0
 51
0.0
 71
     0
 72
   100
 73
     1
 74
     3
 75
     0
 76
     0
 77
     0
 78
     0
281
     0
 65
     1
110
0.0
120
0.0
130
0.0
111
1.0
121
0.0
131
0.0
112
0.0
122
1.0
132
0.0
 79
     0
146
0.0
  0
ENDTAB
  0
TABLE
  2
LTYPE
  5
5
330
0
100
AcDbSymbolTable
 70
     8
  0
LTYPE
  5
14
330
5
100
AcDbSymbolTableRecord
100
AcDbLinetypeTableRecord
  2
ByBlock
 70
     0
  3

 72
    65
 73
     0
 40
0.0
  0
LTYPE
  5
15
330
5
100
AcDbSymbolTableRecord
100
AcDbLinetypeTableRecord
  2
ByLayer
 70
     0
  3

 72
    65
 73
     0
 40
0.0
  0
LTYPE
  5
16
330
5
100
AcDbSymbolTableRecord
100
AcDbLinetypeTableRecord
  2
Continuous
 70
     0
  3
Solid line
 72
    65
 73
     0
 40
0.0
  0
LTYPE
  5
3F
330
5
100
AcDbSymbolTableRecord
100
AcDbLinetypeTableRecord
  2
DASHED
 70
     0
  3
Dashed
 72
    65
 73
     2
 40
15.0
 49
7.0
 74
     0
 49
-8.0
 74
     0
  0
LTYPE
  5
40
330
5
100
AcDbSymbolTableRecord
100
AcDbLinetypeTableRecord
  2
DOTTED
 70
     0
  3
Dotted
 72
    65
 73
     2
 40
1.0
 49
0.0
 74
     0
 49
-1.0
 74
     0
  0
LTYPE
  5
41
330
5
100
AcDbSymbolTableRecord
100
AcDbLinetypeTableRecord
  2
DOT_CENTER
 70
     0
  3
Dot_Center
 72
    65
 73
     4
 40
14.0
 49
12.0
 74
     0
 49
-1.0
 74
     0
 49
0.0
 74
     0
 49
-1.0
 74
     0
  0
LTYPE
  5
42
330
5
100
AcDbSymbolTableRecord
100
AcDbLinetypeTableRecord
  2
LONG_DASHED
 70
     0
  3
Long_Dashed
 72
    65
 73
     2
 40
15.0
 49
10.0
 74
     0
 49
-5.0
 74
     0
  0
LTYPE
  5
43
330
5
100
AcDbSymbolTableRecord
100
AcDbLinetypeTableRecord
  2
DASH_CENTER
 70
     0
  3
Dash_Center
 72
    65
 73
     4
 40
14.0
 49
11.0
 74
     0
 49
-1.0
 74
     0
 49
1.0
 74
     0
 49
-1.0
 74
     0
  0
LTYPE
  5
44
330
5
100
AcDbSymbolTableRecord
100
AcDbLinetypeTableRecord
  2
PHANTOM
 70
     0
  3
Phantom
 72
    65
 73
     6
 40
13.0
 49
10.0
 74
     0
 49
-1.0
 74
     0
 49
0.0
 74
     0
 49
-1.0
 74
     0
 49
0.0
 74
     0
 49
-1.0
 74
     0
  0
LTYPE
  5
45
330
5
100
AcDbSymbolTableRecord
100
AcDbLinetypeTableRecord
  2
CENTER_DASH_DASH
 70
     0
  3
Center_Dash_Dash
 72
    65
 73
     6
 40
14.0
 49
9.0
 74
     0
 49
-1.0
 74
     0
 49
1.0
 74
     0
 49
-1.0
 74
     0
 49
1.0
 74
     0
 49
-1.0
 74
     0
  0
ENDTAB
  0
TABLE
  2
LAYER
  5
2
330
0
100
AcDbSymbolTable
 70
     5
  0
LAYER
  5
10
330
2
100
AcDbSymbolTableRecord
100
AcDbLayerTableRecord
  2
0
 70
     0
 62
     7
  6
Continuous
370
    -3
390
F
  0
LAYER
  5
46
330
2
100
AcDbSymbolTableRecord
100
AcDbLayerTableRecord
  2
1
 70
     0
 62
     7
  6
Continuous
370
    -3
390
F
  0
LAYER
  5
47
330
2
100
AcDbSymbolTableRecord
100
AcDbLayerTableRecord
  2
Schraffur
 70
     0
 62
     7
  6
Continuous
370
    -3
390
F
  0
LAYER
  5
48
330
2
100
AcDbSymbolTableRecord
100
AcDbLayerTableRecord
  2
Skizziergeometrie_ISO_
 70
     0
 62
     7
  6
Continuous
370
    -3
390
F
  0
LAYER
  5
49
330
2
100
AcDbSymbolTableRecord
100
AcDbLayerTableRecord
  2
Symbole_ISO_
 70
     0
 62
     7
  6
Continuous
370
    -3
390
F
  0
ENDTAB
  0
TABLE
  2
STYLE
  5
3
330
0
100
AcDbSymbolTable
 70
     6
  0
STYLE
  5
11
330
3
100
AcDbSymbolTableRecord
100
AcDbTextStyleTableRecord
  2
Standard
 70
     0
 40
0.0
 41
1.0
 50
0.0
 71
     0
 42
0.2
  3
txt
  4

  0
STYLE
  5
75
330
3
100
AcDbSymbolTableRecord
100
AcDbTextStyleTableRecord
  2
CONVERTER_11
 70
     0
 40
0.0
 41
0.67499998211861
 50
0.0
 71
     0
 42
0.2
  3
txt.shx
  4

  0
STYLE
  5
234
330
3
100
AcDbSymbolTableRecord
100
AcDbTextStyleTableRecord
  2
CONVERTER_12
 70
     0
 40
0.0
 41
0.9
 50
0.0
 71
     0
 42
0.2
  3
txt.shx
  4

  0
STYLE
  5
23A
330
3
100
AcDbSymbolTableRecord
100
AcDbTextStyleTableRecord
  2
CONVERTER_13
 70
     0
 40
0.0
 41
0.89999994635582
 50
0.0
 71
     0
 42
0.2
  3
txt.shx
  4

  0
STYLE
  5
23E
330
3
100
AcDbSymbolTableRecord
100
AcDbTextStyleTableRecord
  2
CONVERTER_14
 70
     0
 40
0.0
 41
0.9
 50
0.0
 71
     0
 42
0.2
  3
txt.shx
  4

  0
STYLE
  5
248
330
3
100
AcDbSymbolTableRecord
100
AcDbTextStyleTableRecord
  2
CONVERTER_15
 70
     0
 40
0.0
 41
0.95
 50
0.0
 71
     0
 42
0.2
  3
simplex.shx
  4

  0
ENDTAB
  0
TABLE
  2
VIEW
  5
6
330
0
100
AcDbSymbolTable
 70
     0
  0
ENDTAB
  0
TABLE
  2
UCS
  5
7
330
0
100
AcDbSymbolTable
 70
     0
  0
ENDTAB
  0
TABLE
  2
APPID
  5
9
330
0
100
AcDbSymbolTable
 70
     1
  0
APPID
  5
12
330
9
100
AcDbSymbolTableRecord
100
AcDbRegAppTableRecord
  2
ACAD
 70
     0
  0
ENDTAB
  0
TABLE
  2
DIMSTYLE
  5
A
330
0
100
AcDbSymbolTable
 70
     4
100
AcDbDimStyleTable
  0
DIMSTYLE
105
27
330
A
100
AcDbSymbolTableRecord
100
AcDbDimStyleTableRecord
  2
Standard
 70
     0
340
11
  0
DIMSTYLE
105
24C
102
{ACAD_REACTORS
330
24D
102
}
330
A
100
AcDbSymbolTableRecord
100
AcDbDimStyleTableRecord
  2
ME10_DIM_10
 70
     0
 41
6.0
 42
1.0
 44
2.0
 73
     0
 74
     0
 78
     8
140
6.0
147
4.0
172
     1
173
     1
174
     1
175
     1
176
     2
177
     2
178
     4
271
     0
340
248
  0
DIMSTYLE
105
258
102
{ACAD_REACTORS
330
259
102
}
330
A
100
AcDbSymbolTableRecord
100
AcDbDimStyleTableRecord
  2
ME10_DIM_11
 70
     0
 41
6.0
 42
1.0
 44
2.0
 73
     0
 74
     0
 78
     8
140
6.0
147
4.0
172
     1
173
     1
174
     1
175
     1
176
     2
177
     2
178
     4
271
     2
340
248
  0
DIMSTYLE
105
264
102
{ACAD_REACTORS
330
265
102
}
330
A
100
AcDbSymbolTableRecord
100
AcDbDimStyleTableRecord
  2
ME10_DIM_12
 70
     0
 41
6.0
 42
1.0
 44
2.0
 73
     0
 74
     0
 78
     8
140
6.0
147
4.0
172
     1
173
     1
174
     1
175
     1
176
     2
177
     2
178
     4
271
     0
340
248
  0
ENDTAB
  0
TABLE
  2
BLOCK_RECORD
  5
1
330
0
100
AcDbSymbolTable
 70
     5
  0
BLOCK_RECORD
  5
1F
330
1
100
AcDbSymbolTableRecord
100
AcDbBlockTableRecord
  2
*Model_Space
340
22
  0
BLOCK_RECORD
  5
1B
330
1
100
AcDbSymbolTableRecord
100
AcDbBlockTableRecord
  2
*Paper_Space
340
1E
  0
BLOCK_RECORD
  5
23
330
1
100
AcDbSymbolTableRecord
100
AcDbBlockTableRecord
  2
*Paper_Space0
340
26
  0
BLOCK_RECORD
  5
4A
330
1
100
AcDbSymbolTableRecord
100
AcDbBlockTableRecord
  2
Ränder_Ilme_Rahmen_A4_quer
340
0
102
{BLKREFS
331
6F
102
}
  0
BLOCK_RECORD
  5
241
330
1
100
AcDbSymbolTableRecord
100
AcDbBlockTableRecord
  2
*D2
340
0
  0
BLOCK_RECORD
  5
24E
330
1
100
AcDbSymbolTableRecord
100
AcDbBlockTableRecord
  2
*D3
340
0
  0
BLOCK_RECORD
  5
25A
330
1
100
AcDbSymbolTableRecord
100
AcDbBlockTableRecord
  2
*D4
340
0
  0
ENDTAB
  0
ENDSEC
  0
SECTION
  2
BLOCKS
  0
BLOCK
  5
20
330
1F
100
AcDbEntity
  8
0
100
AcDbBlockBegin
  2
*Model_Space
 70
     0
 10
0.0
 20
0.0
 30
0.0
  3
*Model_Space
  1

  0
ENDBLK
  5
21
330
1F
100
AcDbEntity
  8
0
100
AcDbBlockEnd
  0
BLOCK
  5
1C
330
1B
100
AcDbEntity
 67
     1
  8
0
100
AcDbBlockBegin
  2
*Paper_Space
 70
     0
 10
0.0
 20
0.0
 30
0.0
  3
*Paper_Space
  1

  0
ENDBLK
  5
1D
330
1B
100
AcDbEntity
 67
     1
  8
0
100
AcDbBlockEnd
  0
BLOCK
  5
24
330
23
100
AcDbEntity
  8
0
100
AcDbBlockBegin
  2
*Paper_Space0
 70
     0
 10
0.0
 20
0.0
 30
0.0
  3
*Paper_Space0
  1

  0
ENDBLK
  5
25
330
23
100
AcDbEntity
  8
0
100
AcDbBlockEnd
  0
BLOCK
  5
4B
330
4A
100
AcDbEntity
  8
0
100
AcDbBlockBegin
  2
Ränder_Ilme_Rahmen_A4_quer
 70
     0
 10
5096.699298947227
 20
718.69250149546
 30
0.0
  3
Ränder_Ilme_Rahmen_A4_quer
  1

  0
LWPOLYLINE
  5
70
330
4A
100
AcDbEntity
  8
Skizziergeometrie_ISO_
  6
Continuous
 62
     7
100
AcDbPolyline
 90
        2
 70
     0
 43
0.5
 10
5116.699298947227
 20
738.69250149546
 10
5116.699298947227
 20
1098.69250149546
  0
LWPOLYLINE
  5
71
330
4A
100
AcDbEntity
  8
Skizziergeometrie_ISO_
  6
Continuous
 62
     7
100
AcDbPolyline
 90
        2
 70
     0
 43
0.5
 10
5116.699298947227
 20
1098.69250149546
 10
5670.699298947227
 20
1098.69250149546
  0
LWPOLYLINE
  5
72
330
4A
100
AcDbEntity
  8
Skizziergeometrie_ISO_
  6
Continuous
 62
     7
100
AcDbPolyline
 90
        2
 70
     0
 43
0.5
 10
5116.699298947227
 20
738.69250149546
 10
5670.699298947227
 20
738.69250149546
  0
LWPOLYLINE
  5
73
330
4A
100
AcDbEntity
  8
Skizziergeometrie_ISO_
  6
Continuous
 62
     7
100
AcDbPolyline
 90
        2
 70
     0
 43
0.5
 10
5393.699298947227
 20
1138.69250149546
 10
5393.699298947227
 20
1110.69250149546
  0
LWPOLYLINE
  5
74
330
4A
100
AcDbEntity
  8
Skizziergeometrie_ISO_
  6
Continuous
 62
     7
100
AcDbPolyline
 90
        2
 70
     0
 43
0.5
 10
5670.699298947227
 20
1098.69250149546
 10
5670.699298947227
 20
738.69250149546
  0
MTEXT
  5
76
330
4A
100
AcDbEntity
  8
Symbole_ISO_
 62
     7
100
AcDbMText
 10
5397.599298947225
 20
1111.52226165553
 30
0.0
 40
7.0
 41
0.0
 71
     2
 72
     1
  1
Diritti riservati     All rights reserved
  7
CONVERTER_11
 73
     1
 44
0.75727272727273
  0
ENDBLK
  5
4C
330
4A
100
AcDbEntity
  8
0
100
AcDbBlockEnd
  0
BLOCK
  5
24A
330
241
100
AcDbEntity
  8
0
100
AcDbBlockBegin
  2
*D2
 70
     1
 10
0.0
 20
0.0
 30
0.0
  3
*D2
  1

  0
LINE
  5
242
330
241
100
AcDbEntity
  8
1
  6
Continuous
 62
     2
100
AcDbLine
 10
5252.49233485973
 20
969.0859895201357
 30
0.0
 11
5339.933649295602
 21
969.0859895201357
 31
0.0
  0
LINE
  5
243
330
241
100
AcDbEntity
  8
1
  6
Continuous
 62
     2
100
AcDbLine
 10
5360.533649295602
 20
969.0859895201357
 30
0.0
 11
5447.974963731473
 21
969.0859895201357
 31
0.0
  0
LINE
  5
244
330
241
100
AcDbEntity
  8
1
  6
Continuous
 62
     2
100
AcDbLine
 10
5252.49233485973
 20
990.7859895201358
 30
0.0
 11
5252.49233485973
 21
967.0859895201357
 31
0.0
  0
LINE
  5
245
330
241
100
AcDbEntity
  8
1
  6
Continuous
 62
     2
100
AcDbLine
 10
5447.974963731473
 20
1034.984218393908
 30
0.0
 11
5447.974963731473
 21
967.0859895201357
 31
0.0
  0
SOLID
  5
246
330
241
100
AcDbEntity
  8
1
 62
     2
100
AcDbTrace
 10
5258.49233485973
 20
969.8759045056601
 30
0.0
 11
5258.49233485973
 21
968.2960745346114
 31
0.0
 12
5252.49233485973
 22
969.0859895201357
 32
0.0
 13
5252.49233485973
 23
969.0859895201357
 33
0.0
  0
SOLID
  5
247
330
241
100
AcDbEntity
  8
1
 62
     2
100
AcDbTrace
 10
5441.974963731473
 20
968.2960745346114
 30
0.0
 11
5441.974963731473
 21
969.8759045056601
 31
0.0
 12
5447.974963731473
 22
969.0859895201357
 32
0.0
 13
5447.974963731473
 23
969.0859895201357
 33
0.0
  0
MTEXT
  5
249
330
241
100
AcDbEntity
  8
1
 62
     4
100
AcDbMText
 10
5343.933649295602
 20
966.0859895201357
 30
0.0
 40
6.0
 41
0.0
 71
     7
 72
     1
  1
195
  7
CONVERTER_15
 11
0.9999999999970619
 21
2.424068405545306E-6
 31
0.0
 73
     1
 44
0.60024009603842
  0
ENDBLK
  5
24B
330
241
100
AcDbEntity
  8
0
100
AcDbBlockEnd
  0
BLOCK
  5
256
330
24E
100
AcDbEntity
  8
0
100
AcDbBlockBegin
  2
*D3
 70
     1
 10
0.0
 20
0.0
 30
0.0
  3
*D3
  1

  0
LINE
  5
24F
330
24E
100
AcDbEntity
  8
1
  6
Continuous
 62
     2
100
AcDbLine
 10
5462.717899106468
 20
858.9450183928494
 30
0.0
 11
5462.717899106468
 21
867.445018411757
 31
0.0
  0
LINE
  5
250
330
24E
100
AcDbEntity
  8
1
  6
Continuous
 62
     2
100
AcDbLine
 10
5462.717899106468
 20
884.445018411757
 30
0.0
 11
5462.717899106468
 21
892.9450184306646
 31
0.0
  0
LINE
  5
251
330
24E
100
AcDbEntity
  8
1
  6
Continuous
 62
     2
100
AcDbLine
 10
5419.426883275131
 20
858.9450183928494
 30
0.0
 11
5464.717899106468
 21
858.9450183928494
 31
0.0
  0
LINE
  5
252
330
24E
100
AcDbEntity
  8
1
  6
Continuous
 62
     2
100
AcDbLine
 10
5440.992963731473
 20
892.9450184306646
 30
0.0
 11
5464.717899106468
 21
892.9450184306646
 31
0.0
  0
SOLID
  5
253
330
24E
100
AcDbEntity
  8
1
 62
     2
100
AcDbTrace
 10
5461.927984120944
 20
864.9450183928494
 30
0.0
 11
5463.507814091993
 21
864.9450183928494
 31
0.0
 12
5462.717899106468
 22
858.9450183928494
 32
0.0
 13
5462.717899106468
 23
858.9450183928494
 33
0.0
  0
SOLID
  5
254
330
24E
100
AcDbEntity
  8
1
 62
     2
100
AcDbTrace
 10
5463.507814091993
 20
886.9450184306646
 30
0.0
 11
5461.927984120944
 21
886.9450184306646
 31
0.0
 12
5462.717899106468
 22
892.9450184306646
 32
0.0
 13
5462.717899106468
 23
892.9450184306646
 33
0.0
  0
MTEXT
  5
255
330
24E
100
AcDbEntity
  8
1
 62
     4
100
AcDbMText
 10
5465.717899106468
 20
871.445018411757
 30
0.0
 40
6.0
 41
0.0
 71
     7
 72
     1
  1
34
  7
CONVERTER_15
 11
0.0
 21
1.0
 31
0.0
 73
     1
 44
0.60024009603842
  0
ENDBLK
  5
257
330
24E
100
AcDbEntity
  8
0
100
AcDbBlockEnd
  0
BLOCK
  5
262
330
25A
100
AcDbEntity
  8
0
100
AcDbBlockBegin
  2
*D4
 70
     1
 10
0.0
 20
0.0
 30
0.0
  3
*D4
  1

  0
LINE
  5
25B
330
25A
100
AcDbEntity
  8
1
  6
Continuous
 62
     2
100
AcDbLine
 10
5505.699298947227
 20
983.785989520138
 30
0.0
 11
5505.699298947227
 21
1005.385103957024
 31
0.0
  0
LINE
  5
25C
330
25A
100
AcDbEntity
  8
1
  6
Continuous
 62
     2
100
AcDbLine
 10
5505.699298947227
 20
1022.385103957024
 30
0.0
 11
5505.699298947227
 21
1043.98421839391
 31
0.0
  0
LINE
  5
25D
330
25A
100
AcDbEntity
  8
1
  6
Continuous
 62
     2
100
AcDbLine
 10
5519.699298947227
 20
983.785989520138
 30
0.0
 11
5503.699298947227
 21
983.785989520138
 31
0.0
  0
LINE
  5
25E
330
25A
100
AcDbEntity
  8
1
  6
Continuous
 62
     2
100
AcDbLine
 10
5519.699298947227
 20
1043.98421839391
 30
0.0
 11
5503.699298947227
 21
1043.98421839391
 31
0.0
  0
SOLID
  5
25F
330
25A
100
AcDbEntity
  8
1
 62
     2
100
AcDbTrace
 10
5504.909383961703
 20
989.785989520138
 30
0.0
 11
5506.489213932752
 21
989.785989520138
 31
0.0
 12
5505.699298947227
 22
983.785989520138
 32
0.0
 13
5505.699298947227
 23
983.785989520138
 33
0.0
  0
SOLID
  5
260
330
25A
100
AcDbEntity
  8
1
 62
     2
100
AcDbTrace
 10
5506.489213932752
 20
1037.98421839391
 30
0.0
 11
5504.909383961703
 21
1037.98421839391
 31
0.0
 12
5505.699298947227
 22
1043.98421839391
 32
0.0
 13
5505.699298947227
 23
1043.98421839391
 33
0.0
  0
MTEXT
  5
261
330
25A
100
AcDbEntity
  8
1
 62
     4
100
AcDbMText
 10
5508.699298947227
 20
1009.385103957024
 30
0.0
 40
6.0
 41
0.0
 71
     7
 72
     1
  1
60
  7
CONVERTER_15
 11
0.0
 21
1.0
 31
0.0
 73
     1
 44
0.60024009603842
  0
ENDBLK
  5
263
330
25A
100
AcDbEntity
  8
0
100
AcDbBlockEnd
  0
ENDSEC
  0
SECTION
  2
ENTITIES
  0
INSERT
  5
6F
330
1F
100
AcDbEntity
  8
0
100
AcDbBlockReference
  2
Ränder_Ilme_Rahmen_A4_quer
 10
5096.699298947227
 20
718.69250149546
 30
0.0
  0
LWPOLYLINE
  5
77
330
1F
100
AcDbEntity
  8
Skizziergeometrie_ISO_
  6
Continuous
 62
     7
100
AcDbPolyline
 90
        2
 70
     0
 43
0.5
 10
5650.049288121374
 20
747.2673583273709
 10
5650.049288121374
 20
757.1982933399529
  0
LWPOLYLINE
  5
78
330
1F
100
AcDbEntity
  8
Skizziergeometrie_ISO_
  6
Continuous
 62
     7
100
AcDbPolyline
 90
        2
 70
     0
 43
0.5
 10
5650.049288121374
 20
757.1982933399529
 10
5648.33797408182
 20
754.2342104757415
  0
LWPOLYLINE
  5
79
330
1F
100
AcDbEntity
  8
Skizziergeometrie_ISO_
  6
Continuous
 62
     7
100
AcDbPolyline
 90
        2
 70
     0
 43
0.5
 10
5647.760623812632
 20
754.2342104757415
 10
5646.049309773078
 20
757.1982933399529
  0
LWPOLYLINE
  5
7A
330
1F
100
AcDbEntity
  8
Skizziergeometrie_ISO_
  6
Continuous
 62
     7
100
AcDbPolyline
 90
        2
 70
     0
 43
0.5
 10
5646.049309773078
 20
757.1982933399529
 10
5646.049309773078
 20
750.3859627135865
  0
LWPOLYLINE
  5
7B
330
1F
100
AcDbEntity
  8
Skizziergeometrie_ISO_
  6
Continuous
 62
     7
100
AcDbPolyline
 90
        2
 70
     0
 43
0.5
 10
5631.216428396945
 20
753.9812300241423
 10
5648.049298947226
 20
763.6925014954613
  0
LWPOLYLINE
  5
7C
330
1F
100
AcDbEntity
  8
Skizziergeometrie_ISO_
  6
Continuous
 62
     7
100
AcDbPolyline
 90
        2
 70
     0
 43
0.5
 10
5648.049298947226
 20
763.6925014954613
 10
5664.882169497509
 20
753.9812300241423
  0
LWPOLYLINE
  5
7D
330
1F
100
AcDbEntity
  8
Skizziergeometrie_ISO_
  6
Continuous
 62
     7
100
AcDbPolyline
 90
        2
 70
     0
 43
0.5
 10
5664.882169497509
 20
753.4037729667771
 10
5648.049298947226
 20
743.6925014954581
  0
LWPOLYLINE
  5
7E
330
1F
100
AcDbEntity
  8
Skizziergeometrie_ISO_
  6
Continuous
 62
     7
100
AcDbPolyline
 90
        2
 70
     0
 43
0.5
 10
5648.049298947226
 20
743.6925014954581
 10
5631.216428396945
 20
753.4037729667771
  0
LWPOLYLINE
  5
7F
330
1F
100
AcDbEntity
  8
Skizziergeometrie_ISO_
  6
Continuous
 62
     7
100
AcDbPolyline
 90
        2
 70
     0
 43
0.5
 10
5644.715976439746
 20
750.3859627135865
 10
5644.715976439744
 20
760.1966174288215
  0
LWPOLYLINE
  5
80
330
1F
100
AcDbEntity
  8
Skizziergeometrie_ISO_
  6
Continuous
 62
     7
100
AcDbPolyline
 90
        2
 70
     0
 43
0.5
 10
5645.704843806992
 20
760.4615836412967
 10
5648.049298947226
 20
756.4008682223451
  0
LWPOLYLINE
  5
81
330
1F
100
AcDbEntity
  8
Skizziergeometrie_ISO_
  6
Continuous
 62
     7
100
AcDbPolyline
 90
        2
 70
     0
 43
0.5
 10
5651.382621454708
 20
747.2673583273709
 10
5651.382621454708
 20
760.1966174288214
  0
LWPOLYLINE
  5
82
330
1F
100
AcDbEntity
  8
Skizziergeometrie_ISO_
  6
Continuous
 62
     7
100
AcDbPolyline
 90
        2
 70
     0
 43
0.5
 10
5650.39375408746
 20
760.4615836412967
 10
5648.049298947226
 20
756.4008682223451
  0
LWPOLYLINE
  5
83
330
1F
100
AcDbEntity
  8
Skizziergeometrie_ISO_
  6
Continuous
 62
     7
100
AcDbPolyline
 90
        2
 70
     0
 43
0.5
 10
5642.049300964833
 20
749.2325451711837
 10
5642.049300964833
 20
758.5791780434059
  0
LWPOLYLINE
  5
84
330
1F
100
AcDbEntity
  8
Skizziergeometrie_ISO_
  6
Continuous
 62
     7
100
AcDbPolyline
 90
        2
 70
     0
 43
0.5
 10
5643.382634298167
 20
758.5791780434059
 10
5643.382634298167
 20
749.2325426275213
  0
LWPOLYLINE
  5
85
330
1F
100
AcDbEntity
  8
Skizziergeometrie_ISO_
  6
Continuous
 62
     7
100
AcDbPolyline
 90
        2
 70
     0
 43
0.5
 10
5643.382634298167
 20
749.2325426275213
 10
5647.717906910792
 20
746.7314238125435
  0
LWPOLYLINE
  5
86
330
1F
100
AcDbEntity
  8
Skizziergeometrie_ISO_
  6
Continuous
 62
     7
100
AcDbPolyline
 90
        2
 70
     0
 43
0.5
 10
5647.05161030614
 20
745.576509697812
 10
5642.716339896795
 20
748.0776272416643
  0
LWPOLYLINE
  5
87
330
1F
100
AcDbEntity
  8
Skizziergeometrie_ISO_
  6
Continuous
 62
     7
100
AcDbPolyline
 90
        2
 70
     0
 43
0.5
 10
5640.715965613892
 20
756.9990402773329
 10
5640.715965613892
 20
750.3859627135865
  0
LWPOLYLINE
  5
88
330
1F
100
AcDbEntity
  8
Skizziergeometrie_ISO_
  6
Continuous
 62
     7
100
AcDbPolyline
 90
        2
 70
     0
 43
0.5
 10
5639.38263228056
 20
750.3859627135865
 10
5639.38263228056
 20
756.9990402773329
  0
LWPOLYLINE
  5
89
102
{ACAD_REACTORS
330
266
102
}
330
1F
100
AcDbEntity
  8
Skizziergeometrie_ISO_
  6
Continuous
 62
     7
100
AcDbPolyline
 90
        2
 70
     0
 43
0.5
 10
5653.71577856528
 20
759.1566351007717
 10
5656.454684026472
 20
757.5764973346987
  0
LWPOLYLINE
  5
8A
102
{ACAD_REACTORS
330
266
102
}
330
1F
100
AcDbEntity
  8
Skizziergeometrie_ISO_
  6
Continuous
 62
     7
100
AcDbPolyline
 90
        2
 70
     0
 43
0.5
 10
5655.788387421821
 20
756.4215832199671
 10
5654.049296929619
 20
757.4249046577745
  0
LWPOLYLINE
  5
8B
102
{ACAD_REACTORS
330
266
102
}
330
1F
100
AcDbEntity
  8
Skizziergeometrie_ISO_
  6
Continuous
 62
     7
100
AcDbPolyline
 90
        2
 70
     0
 43
0.5
 10
5654.049296929619
 20
757.4249046577745
 10
5654.049296929619
 20
754.3591681621265
  0
LWPOLYLINE
  5
8C
102
{ACAD_REACTORS
330
266
102
}
330
1F
100
AcDbEntity
  8
Skizziergeometrie_ISO_
  6
Continuous
 62
     7
100
AcDbPolyline
 90
        2
 70
     0
 43
0.5
 10
5654.049296929619
 20
754.3591681621265
 10
5656.121535724147
 20
754.3591681621265
  0
LWPOLYLINE
  5
8D
102
{ACAD_REACTORS
330
266
102
}
330
1F
100
AcDbEntity
  8
Skizziergeometrie_ISO_
  6
Continuous
 62
     7
100
AcDbPolyline
 90
        2
 70
     0
 43
0.5
 10
5656.121535724147
 20
753.0258348287929
 10
5654.049296929619
 20
753.0258348287929
  0
LWPOLYLINE
  5
8E
102
{ACAD_REACTORS
330
266
102
}
330
1F
100
AcDbEntity
  8
Skizziergeometrie_ISO_
  6
Continuous
 62
     7
100
AcDbPolyline
 90
        2
 70
     0
 43
0.5
 10
5654.049296929619
 20
753.0258348287929
 10
5654.049296929619
 20
749.9600983331449
  0
LWPOLYLINE
  5
8F
102
{ACAD_REACTORS
330
266
102
}
330
1F
100
AcDbEntity
  8
Skizziergeometrie_ISO_
  6
Continuous
 62
     7
100
AcDbPolyline
 90
        2
 70
     0
 43
0.5
 10
5654.049296929619
 20
749.9600983331449
 10
5655.788387421821
 20
750.9634197709523
  0
LWPOLYLINE
  5
90
102
{ACAD_REACTORS
330
266
102
}
330
1F
100
AcDbEntity
  8
Skizziergeometrie_ISO_
  6
Continuous
 62
     7
100
AcDbPolyline
 90
        2
 70
     0
 43
0.5
 10
5656.454684026472
 20
749.8085056562207
 10
5653.71577856528
 20
748.2283678901478
  0
LWPOLYLINE
  5
91
102
{ACAD_REACTORS
330
266
102
}
330
1F
100
AcDbEntity
  8
Skizziergeometrie_ISO_
  6
Continuous
 62
     7
100
AcDbPolyline
 90
        2
 70
     0
 43
0.5
 10
5652.715963596287
 20
748.8058249475135
 10
5652.715963596287
 20
758.5791780434059
  0
LWPOLYLINE
  5
92
330
1F
100
AcDbEntity
  8
Skizziergeometrie_ISO_
  6
Continuous
 62
     7
100
AcDbPolyline
 90
        2
 70
     0
 43
0.5
 10
5310.699298947227
 20
768.6925014954597
 10
5670.699298947227
 20
768.6925014954597
  0
LWPOLYLINE
  5
93
330
1F
100
AcDbEntity
  8
Skizziergeometrie_ISO_
  6
Continuous
 62
     7
100
AcDbPolyline
 90
        2
 70
     0
 43
0.5
 10
5310.699298947227
 20
778.6925014954597
 10
5670.699298947227
 20
778.6925014954597
  0
LWPOLYLINE
  5
94
330
1F
100
AcDbEntity
  8
Skizziergeometrie_ISO_
  6
Continuous
 62
     7
100
AcDbPolyline
 90
        2
 70
     0
 43
0.5
 10
5310.699298947227
 20
788.6925014954597
 10
5670.699298947227
 20
788.6925014954597
  0
LWPOLYLINE
  5
95
330
1F
100
AcDbEntity
  8
Skizziergeometrie_ISO_
  6
Continuous
 62
     7
100
AcDbPolyline
 90
        2
 70
     0
 43
0.5
 10
5310.699298947227
 20
798.6925014954597
 10
5670.699298947227
 20
798.6925014954597
  0
LWPOLYLINE
  5
96
330
1F
100
AcDbEntity
  8
Skizziergeometrie_ISO_
  6
Continuous
 62
     7
100
AcDbPolyline
 90
        2
 70
     0
 43
0.5
 10
5310.699298947227
 20
808.6925014954597
 10
5670.699298947227
 20
808.6925014954597
  0
LINE
  5
97
330
1F
100
AcDbEntity
  8
0
  6
Continuous
 62
     7
100
AcDbLine
 10
5656.454684026472
 20
749.8085056562207
 30
0.0
 11
5653.71577856528
 21
748.2283678901478
 31
0.0
  0
LINE
  5
98
330
1F
100
AcDbEntity
  8
0
  6
Continuous
 62
     7
100
AcDbLine
 10
5652.715963596287
 20
748.8058249475135
 30
0.0
 11
5652.715963596287
 21
758.5791780434059
 31
0.0
  0
LINE
  5
99
330
1F
100
AcDbEntity
  8
0
  6
Continuous
 62
     7
100
AcDbLine
 10
5653.71577856528
 20
759.1566351007717
 30
0.0
 11
5656.454684026472
 21
757.5764973346987
 31
0.0
  0
LINE
  5
9A
330
1F
100
AcDbEntity
  8
0
  6
Continuous
 62
     7
100
AcDbLine
 10
5655.788387421821
 20
756.4215832199671
 30
0.0
 11
5654.049296929619
 21
757.4249046577745
 31
0.0
  0
LINE
  5
9B
330
1F
100
AcDbEntity
  8
0
  6
Continuous
 62
     7
100
AcDbLine
 10
5654.049296929619
 20
757.4249046577745
 30
0.0
 11
5654.049296929619
 21
754.3591681621265
 31
0.0
  0
LINE
  5
9C
330
1F
100
AcDbEntity
  8
0
  6
Continuous
 62
     7
100
AcDbLine
 10
5654.049296929619
 20
754.3591681621265
 30
0.0
 11
5656.121535724147
 21
754.3591681621265
 31
0.0
  0
LINE
  5
9D
330
1F
100
AcDbEntity
  8
0
  6
Continuous
 62
     7
100
AcDbLine
 10
5656.121535724147
 20
753.0258348287929
 30
0.0
 11
5654.049296929619
 21
753.0258348287929
 31
0.0
  0
LINE
  5
9E
330
1F
100
AcDbEntity
  8
0
  6
Continuous
 62
     7
100
AcDbLine
 10
5654.049296929619
 20
753.0258348287929
 30
0.0
 11
5654.049296929619
 21
749.9600983331449
 31
0.0
  0
LINE
  5
9F
330
1F
100
AcDbEntity
  8
0
  6
Continuous
 62
     7
100
AcDbLine
 10
5654.049296929619
 20
749.9600983331449
 30
0.0
 11
5655.788387421821
 21
750.9634197709523
 31
0.0
  0
LINE
  5
A0
102
{ACAD_REACTORS
330
269
102
}
330
1F
100
AcDbEntity
  8
0
  6
Continuous
 62
     7
100
AcDbLine
 10
5644.715976439744
 20
760.1966174288215
 30
0.0
 11
5644.715976439746
 21
750.3859627135865
 31
0.0
  0
LINE
  5
A1
102
{ACAD_REACTORS
330
269
102
}
330
1F
100
AcDbEntity
  8
0
  6
Continuous
 62
     7
100
AcDbLine
 10
5646.049309773078
 20
750.3859627135865
 30
0.0
 11
5646.049309773078
 21
757.1982933399529
 31
0.0
  0
LINE
  5
A2
102
{ACAD_REACTORS
330
269
102
}
330
1F
100
AcDbEntity
  8
0
  6
Continuous
 62
     7
100
AcDbLine
 10
5646.049309773078
 20
757.1982933399529
 30
0.0
 11
5647.760623812632
 21
754.2342104757415
 31
0.0
  0
LINE
  5
A3
102
{ACAD_REACTORS
330
269
102
}
330
1F
100
AcDbEntity
  8
0
  6
Continuous
 62
     7
100
AcDbLine
 10
5648.33797408182
 20
754.2342104757415
 30
0.0
 11
5650.049288121374
 21
757.1982933399529
 31
0.0
  0
LINE
  5
A4
102
{ACAD_REACTORS
330
269
102
}
330
1F
100
AcDbEntity
  8
0
  6
Continuous
 62
     7
100
AcDbLine
 10
5650.049288121374
 20
757.1982933399529
 30
0.0
 11
5650.049288121374
 21
747.2673583273709
 31
0.0
  0
LINE
  5
A5
102
{ACAD_REACTORS
330
269
102
}
330
1F
100
AcDbEntity
  8
0
  6
Continuous
 62
     7
100
AcDbLine
 10
5651.382621454708
 20
747.2673583273709
 30
0.0
 11
5651.382621454708
 21
760.1966174288214
 31
0.0
  0
LINE
  5
A6
102
{ACAD_REACTORS
330
269
102
}
330
1F
100
AcDbEntity
  8
0
  6
Continuous
 62
     7
100
AcDbLine
 10
5650.39375408746
 20
760.4615836412967
 30
0.0
 11
5648.049298947226
 21
756.4008682223451
 31
0.0
  0
LINE
  5
A7
102
{ACAD_REACTORS
330
269
102
}
330
1F
100
AcDbEntity
  8
0
  6
Continuous
 62
     7
100
AcDbLine
 10
5648.049298947226
 20
756.4008682223451
 30
0.0
 11
5645.704843806992
 21
760.4615836412967
 31
0.0
  0
LINE
  5
A8
102
{ACAD_REACTORS
330
268
102
}
330
1F
100
AcDbEntity
  8
0
  6
Continuous
 62
     7
100
AcDbLine
 10
5643.382634298167
 20
749.2325426275213
 30
0.0
 11
5643.382634298167
 21
758.5791780434059
 31
0.0
  0
LINE
  5
A9
102
{ACAD_REACTORS
330
268
102
}
330
1F
100
AcDbEntity
  8
0
  6
Continuous
 62
     7
100
AcDbLine
 10
5642.049300964833
 20
758.5791780434059
 30
0.0
 11
5642.049300964833
 21
749.2325451711837
 31
0.0
  0
LINE
  5
AA
102
{ACAD_REACTORS
330
268
102
}
330
1F
100
AcDbEntity
  8
0
  6
Continuous
 62
     7
100
AcDbLine
 10
5642.716339896795
 20
748.0776272416643
 30
0.0
 11
5647.05161030614
 21
745.576509697812
 31
0.0
  0
LINE
  5
AB
102
{ACAD_REACTORS
330
268
102
}
330
1F
100
AcDbEntity
  8
0
  6
Continuous
 62
     7
100
AcDbLine
 10
5647.717906910792
 20
746.7314238125435
 30
0.0
 11
5643.382634298167
 21
749.2325426275213
 31
0.0
  0
LINE
  5
AC
102
{ACAD_REACTORS
330
267
102
}
330
1F
100
AcDbEntity
  8
0
  6
Continuous
 62
     7
100
AcDbLine
 10
5640.715965613892
 20
756.9990402773329
 30
0.0
 11
5640.715965613892
 21
750.3859627135865
 31
0.0
  0
LINE
  5
AD
102
{ACAD_REACTORS
330
267
102
}
330
1F
100
AcDbEntity
  8
0
  6
Continuous
 62
     7
100
AcDbLine
 10
5639.38263228056
 20
750.3859627135865
 30
0.0
 11
5639.38263228056
 21
756.9990402773329
 31
0.0
  0
LINE
  5
AE
330
1F
100
AcDbEntity
  8
0
  6
Continuous
 62
     7
100
AcDbLine
 10
5314.312243434488
 20
983.7859895201358
 30
0.0
 11
5314.422607516369
 21
983.7859895201358
 31
0.0
  0
LINE
  5
AF
330
1F
100
AcDbEntity
  8
0
  6
Continuous
 62
     7
100
AcDbLine
 10
5312.81795138735
 20
983.7859895201358
 30
0.0
 11
5314.312243434488
 21
983.7859895201358
 31
0.0
  0
LINE
  5
B0
330
1F
100
AcDbEntity
  8
0
  6
Continuous
 62
     7
100
AcDbLine
 10
5314.422607516369
 20
983.7859895201358
 30
0.0
 11
5315.916899563506
 21
983.7859895201358
 31
0.0
  0
LINE
  5
B1
330
1F
100
AcDbEntity
  8
0
  6
Continuous
 62
     7
100
AcDbLine
 10
5384.547429249122
 20
983.7859895201356
 30
0.0
 11
5386.041721296258
 21
983.7859895201358
 31
0.0
  0
LINE
  5
B2
330
1F
100
AcDbEntity
  8
0
  6
Continuous
 62
     7
100
AcDbLine
 10
5315.916899563506
 20
983.7859895201358
 30
0.0
 11
5384.547429249122
 21
983.7859895201356
 31
0.0
  0
LINE
  5
B3
330
1F
100
AcDbEntity
  8
0
  6
Continuous
 62
     7
100
AcDbLine
 10
5386.041721296258
 20
983.7859895201358
 30
0.0
 11
5386.152085378139
 21
983.7859895201358
 31
0.0
  0
LINE
  5
B4
330
1F
100
AcDbEntity
  8
0
  6
Continuous
 62
     7
100
AcDbLine
 10
5386.152085378139
 20
983.7859895201358
 30
0.0
 11
5387.646377425277
 21
983.7859895201358
 31
0.0
  0
LINE
  5
B5
330
1F
100
AcDbEntity
  8
0
  6
Continuous
 62
     2
100
AcDbLine
 10
5384.547429249122
 20
984.7859895201356
 30
0.0
 11
5386.340579705686
 21
984.7859895201358
 31
0.0
  0
LINE
  5
B6
330
1F
100
AcDbEntity
  8
0
  6
Continuous
 62
     2
100
AcDbLine
 10
5314.01338502506
 20
984.7859895201358
 30
0.0
 11
5314.123749106941
 21
984.7859895201358
 31
0.0
  0
LINE
  5
B7
330
1F
100
AcDbEntity
  8
0
  6
Continuous
 62
     2
100
AcDbLine
 10
5312.81795138735
 20
984.7859895201358
 30
0.0
 11
5314.01338502506
 21
984.7859895201358
 31
0.0
  0
LINE
  5
B8
330
1F
100
AcDbEntity
  8
0
  6
Continuous
 62
     2
100
AcDbLine
 10
5314.123749106941
 20
984.7859895201358
 30
0.0
 11
5315.916899563506
 21
984.7859895201358
 31
0.0
  0
LINE
  5
B9
330
1F
100
AcDbEntity
  8
0
  6
Continuous
 62
     2
100
AcDbLine
 10
5315.916899563506
 20
984.7859895201358
 30
0.0
 11
5384.547429249122
 21
984.7859895201356
 31
0.0
  0
LINE
  5
BA
330
1F
100
AcDbEntity
  8
0
  6
Continuous
 62
     2
100
AcDbLine
 10
5386.450943787567
 20
984.7859895201358
 30
0.0
 11
5387.646377425277
 21
984.7859895201358
 31
0.0
  0
LINE
  5
BB
330
1F
100
AcDbEntity
  8
0
  6
Continuous
 62
     2
100
AcDbLine
 10
5386.340579705686
 20
984.7859895201358
 30
0.0
 11
5386.450943787567
 21
984.7859895201358
 31
0.0
  0
LINE
  5
BC
330
1F
100
AcDbEntity
  8
0
  6
Continuous
 62
     7
100
AcDbLine
 10
5252.510334859731
 20
892.9450184306645
 30
0.0
 11
5252.510334859731
 21
887.9450184306646
 31
0.0
  0
LINE
  5
BD
330
1F
100
AcDbEntity
  8
0
  6
Continuous
 62
     7
100
AcDbLine
 10
5260.510334859731
 20
892.9450184306645
 30
0.0
 11
5252.510334859731
 21
892.9450184306645
 31
0.0
  0
LINE
  5
BE
330
1F
100
AcDbEntity
  8
0
  6
Continuous
 62
     2
100
AcDbLine
 10
5260.510334859731
 20
887.9450184306646
 30
0.0
 11
5252.510334859731
 21
887.9450184306646
 31
0.0
  0
LINE
  5
BF
330
1F
100
AcDbEntity
  8
0
  6
Continuous
 62
     7
100
AcDbLine
 10
5418.942963731995
 20
886.9450184306646
 30
0.0
 11
5281.660334859731
 21
886.9450184306646
 31
0.0
  0
LINE
  5
C0
330
1F
100
AcDbEntity
  8
0
  6
Continuous
 62
     7
100
AcDbLine
 10
5260.510334859731
 20
886.9450184306646
 30
0.0
 11
5253.510334859731
 21
886.9450184306646
 31
0.0
  0
LINE
  5
C1
330
1F
100
AcDbEntity
  8
0
  6
Continuous
 62
     2
100
AcDbLine
 10
5260.510334859731
 20
892.9450184306645
 30
0.0
 11
5260.510334859731
 21
887.9450184306646
 31
0.0
  0
LINE
  5
C2
330
1F
100
AcDbEntity
  8
0
  6
Continuous
 62
     2
100
AcDbLine
 10
5264.660334859732
 20
892.9450184306645
 30
0.0
 11
5264.660334859732
 21
887.9450184306646
 31
0.0
  0
LINE
  5
C3
330
1F
100
AcDbEntity
  8
0
  6
Continuous
 62
     2
100
AcDbLine
 10
5260.510334859731
 20
887.9450184306646
 30
0.0
 11
5264.660334859732
 21
887.9450184306646
 31
0.0
  0
LINE
  5
C4
330
1F
100
AcDbEntity
  8
0
  6
Continuous
 62
     7
100
AcDbLine
 10
5270.660334859731
 20
892.9450184306645
 30
0.0
 11
5270.660334859731
 21
887.9450184306646
 31
0.0
  0
LINE
  5
C5
330
1F
100
AcDbEntity
  8
0
  6
Continuous
 62
     2
100
AcDbLine
 10
5439.992963731473
 20
887.9450184306646
 30
0.0
 11
5281.660334859731
 21
887.9450184306646
 31
0.0
  0
LINE
  5
C6
330
1F
100
AcDbEntity
  8
0
  6
Continuous
 62
     2
100
AcDbLine
 10
5281.660334859731
 20
887.9450184306646
 30
0.0
 11
5270.660334859731
 21
887.9450184306646
 31
0.0
  0
LINE
  5
C7
330
1F
100
AcDbEntity
  8
0
  6
Continuous
 62
     2
100
AcDbLine
 10
5281.660334859731
 20
892.9450184306645
 30
0.0
 11
5281.660334859731
 21
887.9450184306646
 31
0.0
  0
LINE
  5
C8
330
1F
100
AcDbEntity
  8
0
  6
Continuous
 62
     7
100
AcDbLine
 10
5353.872629026375
 20
888.9450184306645
 30
0.0
 11
5346.626499340759
 21
888.9450184306646
 31
0.0
  0
LINE
  5
C9
330
1F
100
AcDbEntity
  8
0
  6
Continuous
 62
     7
100
AcDbLine
 10
5281.660334859731
 20
892.9450184306645
 30
0.0
 11
5343.527551164605
 21
892.9450184306645
 31
0.0
  0
LINE
  5
CA
330
1F
100
AcDbEntity
  8
0
  6
Continuous
 62
     7
100
AcDbLine
 10
5260.510334859731
 20
892.9450184306645
 30
0.0
 11
5264.660334859732
 21
892.9450184306645
 31
0.0
  0
LINE
  5
CB
330
1F
100
AcDbEntity
  8
0
  6
Continuous
 62
     7
100
AcDbLine
 10
5264.660334859732
 20
892.9450184306645
 30
0.0
 11
5270.660334859731
 21
892.9450184306645
 31
0.0
  0
LINE
  5
CC
330
1F
100
AcDbEntity
  8
0
  6
Continuous
 62
     7
100
AcDbLine
 10
5270.660334859731
 20
892.9450184306645
 30
0.0
 11
5281.660334859731
 21
892.9450184306645
 31
0.0
  0
LINE
  5
CD
330
1F
100
AcDbEntity
  8
0
  6
Continuous
 62
     7
100
AcDbLine
 10
5345.021843211742
 20
891.575752044786
 30
0.0
 11
5345.132207293622
 21
890.314284816543
 31
0.0
  0
LINE
  5
CE
330
1F
100
AcDbEntity
  8
0
  6
Continuous
 62
     7
100
AcDbLine
 10
5355.366921073513
 20
890.3142848165431
 30
0.0
 11
5355.477285155394
 21
891.575752044786
 31
0.0
  0
LINE
  5
CF
330
1F
100
AcDbEntity
  8
0
  6
Continuous
 62
     2
100
AcDbLine
 10
5439.992963731473
 20
892.9450184306645
 30
0.0
 11
5439.992963731473
 21
887.9450184306646
 31
0.0
  0
LINE
  5
D0
330
1F
100
AcDbEntity
  8
0
  6
Continuous
 62
     7
100
AcDbLine
 10
5356.971577202531
 20
892.9450184306645
 30
0.0
 11
5439.992963731473
 21
892.9450184306645
 31
0.0
  0
LINE
  5
D1
330
1F
100
AcDbEntity
  8
0
  6
Continuous
 62
     7
100
AcDbLine
 10
5447.992963731473
 20
892.9450184306645
 30
0.0
 11
5439.992963731473
 21
892.9450184306645
 31
0.0
  0
LINE
  5
D2
330
1F
100
AcDbEntity
  8
0
  6
Continuous
 62
     7
100
AcDbLine
 10
5447.992963731473
 20
892.9450184306645
 30
0.0
 11
5447.992963731473
 21
887.9450184306646
 31
0.0
  0
LINE
  5
D3
330
1F
100
AcDbEntity
  8
0
  6
Continuous
 62
     2
100
AcDbLine
 10
5447.992963731473
 20
887.9450184306646
 30
0.0
 11
5439.992963731473
 21
887.9450184306646
 31
0.0
  0
LINE
  5
D4
330
1F
100
AcDbEntity
  8
0
  6
Continuous
 62
     7
100
AcDbLine
 10
5446.992963731473
 20
886.9450184306645
 30
0.0
 11
5439.992963731473
 21
886.9450184306645
 31
0.0
  0
LINE
  5
D5
330
1F
100
AcDbEntity
  8
0
  6
Continuous
 62
     7
100
AcDbLine
 10
5421.969986369953
 20
877.4450184306647
 30
0.0
 11
5418.942963731995
 21
877.4450184306647
 31
0.0
  0
LINE
  5
D6
330
1F
100
AcDbEntity
  8
0
  6
Continuous
 62
     7
100
AcDbLine
 10
5426.542963731996
 20
877.4450184306647
 30
0.0
 11
5421.969986369953
 21
877.4450184306647
 31
0.0
  0
LINE
  5
D7
330
1F
100
AcDbEntity
  8
0
  6
Continuous
 62
     2
100
AcDbLine
 10
5427.542963731996
 20
878.4450184306647
 30
0.0
 11
5418.942963731995
 21
878.4450184306647
 31
0.0
  0
LINE
  5
D8
330
1F
100
AcDbEntity
  8
0
  6
Continuous
 62
     7
100
AcDbLine
 10
5427.542963731996
 20
886.9450184306646
 30
0.0
 11
5418.942963731995
 21
886.9450184306646
 31
0.0
  0
LINE
  5
D9
330
1F
100
AcDbEntity
  8
0
  6
Continuous
 62
     2
100
AcDbLine
 10
5439.992963731473
 20
886.9450184306645
 30
0.0
 11
5439.992963731473
 21
887.9450184306646
 31
0.0
  0
LINE
  5
DA
330
1F
100
AcDbEntity
  8
0
  6
Continuous
 62
     7
100
AcDbLine
 10
5439.992963731473
 20
886.9450184306645
 30
0.0
 11
5427.542963731996
 21
886.9450184306646
 31
0.0
  0
LINE
  5
DB
330
1F
100
AcDbEntity
  8
0
  6
Continuous
 62
     2
100
AcDbLine
 10
5418.942963731995
 20
886.9450184306646
 30
0.0
 11
5418.942963731995
 21
878.4450184306647
 31
0.0
  0
LINE
  5
DC
330
1F
100
AcDbEntity
  8
0
  6
Continuous
 62
     7
100
AcDbLine
 10
5427.542963731996
 20
886.9450184306646
 30
0.0
 11
5427.542963731996
 21
878.4450184306647
 31
0.0
  0
LINE
  5
DD
330
1F
100
AcDbEntity
  8
0
  6
Continuous
 62
     7
100
AcDbLine
 10
5282.074650019162
 20
858.9450211719193
 30
0.0
 11
5418.426883275131
 21
858.9450183928494
 31
0.0
  0
LINE
  5
DE
330
1F
100
AcDbEntity
  8
0
  6
Continuous
 62
     7
100
AcDbLine
 10
5421.425058389786
 20
861.840322769642
 30
0.0
 11
5421.457596643793
 21
862.7720964527871
 31
0.0
  0
LINE
  5
DF
330
1F
100
AcDbEntity
  8
0
  6
Continuous
 62
     7
100
AcDbLine
 10
5421.457596643793
 20
862.7720964527871
 30
0.0
 11
5421.969986369953
 21
877.4450184306647
 31
0.0
  0
LINE
  5
E0
330
1F
100
AcDbEntity
  8
0
  6
Continuous
 62
     2
100
AcDbLine
 10
5418.942963731995
 20
877.4450184306647
 30
0.0
 11
5418.942963731995
 21
878.4450184306647
 31
0.0
  0
LINE
  5
E1
330
1F
100
AcDbEntity
  8
0
  6
Continuous
 62
     2
100
AcDbLine
 10
5281.55856373199
 20
878.4450184306647
 30
0.0
 11
5418.942963731995
 21
878.4450184306647
 31
0.0
  0
LINE
  5
E2
330
1F
100
AcDbEntity
  8
0
  6
Continuous
 62
     2
100
AcDbLine
 10
5281.55856373199
 20
878.4450184306647
 30
0.0
 11
5272.95856373199
 21
878.4450184306647
 31
0.0
  0
LINE
  5
E3
330
1F
100
AcDbEntity
  8
0
  6
Continuous
 62
     7
100
AcDbLine
 10
5285.027581469656
 20
877.4450184306647
 30
0.0
 11
5415.47394599433
 21
877.4450184306647
 31
0.0
  0
LINE
  5
E4
330
1F
100
AcDbEntity
  8
0
  6
Continuous
 62
     7
100
AcDbLine
 10
5415.47394599433
 20
877.4450184306647
 30
0.0
 11
5418.942963731995
 21
877.4450184306647
 31
0.0
  0
LINE
  5
E5
330
1F
100
AcDbEntity
  8
0
  6
Continuous
 62
     2
100
AcDbLine
 10
5414.983458794966
 20
863.3993027576745
 30
0.0
 11
5415.47394599433
 21
877.4450184306647
 31
0.0
  0
LINE
  5
E6
330
1F
100
AcDbEntity
  8
0
  6
Continuous
 62
     2
100
AcDbLine
 10
5264.660334859732
 20
887.9450184306646
 30
0.0
 11
5270.660334859731
 21
887.9450184306646
 31
0.0
  0
LINE
  5
E7
330
1F
100
AcDbEntity
  8
0
  6
Continuous
 62
     2
100
AcDbLine
 10
5264.660334859732
 20
887.9450184306646
 30
0.0
 11
5264.660334859732
 21
886.9450184306646
 31
0.0
  0
LINE
  5
E8
330
1F
100
AcDbEntity
  8
0
  6
Continuous
 62
     7
100
AcDbLine
 10
5260.510334859731
 20
886.9450184306646
 30
0.0
 11
5264.660334859732
 21
886.9450184306646
 31
0.0
  0
LINE
  5
E9
330
1F
100
AcDbEntity
  8
0
  6
Continuous
 62
     2
100
AcDbLine
 10
5260.510334859731
 20
886.9450184306646
 30
0.0
 11
5260.510334859731
 21
887.9450184306646
 31
0.0
  0
LINE
  5
EA
330
1F
100
AcDbEntity
  8
0
  6
Continuous
 62
     2
100
AcDbLine
 10
5281.660334859731
 20
886.9450184306646
 30
0.0
 11
5281.660334859731
 21
887.9450184306646
 31
0.0
  0
LINE
  5
EB
330
1F
100
AcDbEntity
  8
0
  6
Continuous
 62
     7
100
AcDbLine
 10
5272.95856373199
 20
886.9450184306646
 30
0.0
 11
5271.660334859731
 21
886.9450184306646
 31
0.0
  0
LINE
  5
EC
330
1F
100
AcDbEntity
  8
0
  6
Continuous
 62
     7
100
AcDbLine
 10
5272.95856373199
 20
886.9450184306646
 30
0.0
 11
5272.95856373199
 21
878.4450184306647
 31
0.0
  0
LINE
  5
ED
330
1F
100
AcDbEntity
  8
0
  6
Continuous
 62
     7
100
AcDbLine
 10
5278.531541094032
 20
877.4450184306647
 30
0.0
 11
5273.95856373199
 21
877.4450184306647
 31
0.0
  0
LINE
  5
EE
330
1F
100
AcDbEntity
  8
0
  6
Continuous
 62
     7
100
AcDbLine
 10
5281.660334859731
 20
886.9450184306646
 30
0.0
 11
5281.55856373199
 21
886.9450184306646
 31
0.0
  0
LINE
  5
EF
330
1F
100
AcDbEntity
  8
0
  6
Continuous
 62
     7
100
AcDbLine
 10
5281.55856373199
 20
877.4450184306647
 30
0.0
 11
5278.531541094032
 21
877.4450184306647
 31
0.0
  0
LINE
  5
F0
330
1F
100
AcDbEntity
  8
0
  6
Continuous
 62
     7
100
AcDbLine
 10
5279.043930753443
 20
862.772098364194
 30
0.0
 11
5279.076468917275
 21
861.8403272633797
 31
0.0
  0
LINE
  5
F1
330
1F
100
AcDbEntity
  8
0
  6
Continuous
 62
     2
100
AcDbLine
 10
5281.55856373199
 20
886.9450184306646
 30
0.0
 11
5281.55856373199
 21
878.4450184306647
 31
0.0
  0
LINE
  5
F2
330
1F
100
AcDbEntity
  8
0
  6
Continuous
 62
     2
100
AcDbLine
 10
5281.55856373199
 20
877.4450184306647
 30
0.0
 11
5281.55856373199
 21
878.4450184306647
 31
0.0
  0
LINE
  5
F3
330
1F
100
AcDbEntity
  8
0
  6
Continuous
 62
     7
100
AcDbLine
 10
5281.55856373199
 20
877.4450184306647
 30
0.0
 11
5285.027581469656
 21
877.4450184306647
 31
0.0
  0
LINE
  5
F4
330
1F
100
AcDbEntity
  8
0
  6
Continuous
 62
     2
100
AcDbLine
 10
5285.518068875904
 20
863.3992968332789
 30
0.0
 11
5285.027581469656
 21
877.4450184306647
 31
0.0
  0
LINE
  5
F5
330
1F
100
AcDbEntity
  8
0
  6
Continuous
 62
     7
100
AcDbLine
 10
5279.043930753443
 20
862.772098364194
 30
0.0
 11
5278.531541094032
 21
877.4450184306647
 31
0.0
  0
LINE
  5
F6
330
1F
100
AcDbEntity
  8
0
  6
Continuous
 62
     7
100
AcDbLine
 10
5281.55856373199
 20
886.9450184306646
 30
0.0
 11
5272.95856373199
 21
886.9450184306646
 31
0.0
  0
LINE
  5
F7
330
1F
100
AcDbEntity
  8
0
  6
Continuous
 62
     7
100
AcDbLine
 10
5264.660334859732
 20
886.9450184306646
 30
0.0
 11
5271.660334859731
 21
886.9450184306646
 31
0.0
  0
LINE
  5
F8
330
1F
100
AcDbEntity
  8
0
  6
Continuous
 62
     7
100
AcDbLine
 10
5439.974963731473
 20
1043.984218393908
 30
0.0
 11
5281.642334859731
 21
1043.984218393908
 31
0.0
  0
LINE
  5
F9
330
1F
100
AcDbEntity
  8
0
  6
Continuous
 62
     2
100
AcDbLine
 10
5439.974963731473
 20
1042.984218393908
 30
0.0
 11
5439.974963731473
 21
1043.984218393908
 31
0.0
  0
LINE
  5
FA
330
1F
100
AcDbEntity
  8
0
  6
Continuous
 62
     2
100
AcDbLine
 10
5281.642334859731
 20
1042.984218393908
 30
0.0
 11
5281.642334859731
 21
1043.984218393908
 31
0.0
  0
LINE
  5
FB
330
1F
100
AcDbEntity
  8
0
  6
Continuous
 62
     2
100
AcDbLine
 10
5439.974963731473
 20
1042.984218393908
 30
0.0
 11
5387.646377425277
 21
1042.984218393908
 31
0.0
  0
LINE
  5
FC
330
1F
100
AcDbEntity
  8
0
  6
Continuous
 62
     2
100
AcDbLine
 10
5387.646377425277
 20
1042.984218393908
 30
0.0
 11
5281.642334859731
 21
1042.984218393908
 31
0.0
  0
LINE
  5
FD
330
1F
100
AcDbEntity
  8
0
  6
Continuous
 62
     2
100
AcDbLine
 10
5273.940563731989
 20
1032.785989520138
 30
0.0
 11
5272.940563731989
 21
1032.785989520138
 31
0.0
  0
LINE
  5
FE
330
1F
100
AcDbEntity
  8
0
  6
Continuous
 62
     2
100
AcDbLine
 10
5281.540563731989
 20
1040.385989520138
 30
0.0
 11
5281.540563731989
 21
1041.385989520138
 31
0.0
  0
LINE
  5
FF
330
1F
100
AcDbEntity
  8
0
  6
Continuous
 62
     7
100
AcDbLine
 10
5415.455945994328
 20
1036.413012158094
 30
0.0
 11
5285.009581469655
 21
1036.413012158094
 31
0.0
  0
LINE
  5
100
330
1F
100
AcDbEntity
  8
0
  6
Continuous
 62
     2
100
AcDbLine
 10
5414.965458794965
 20
1035.922524958731
 30
0.0
 11
5415.455945994328
 21
1036.413012158094
 31
0.0
  0
LINE
  5
101
330
1F
100
AcDbEntity
  8
0
  6
Continuous
 62
     2
100
AcDbLine
 10
5285.500068875903
 20
1035.922524751847
 30
0.0
 11
5285.009581469655
 21
1036.413012158094
 31
0.0
  0
LINE
  5
102
330
1F
100
AcDbEntity
  8
0
  6
Continuous
 62
     2
100
AcDbLine
 10
5446.974963731473
 20
1035.984218393908
 30
0.0
 11
5447.974963731473
 21
1035.984218393908
 31
0.0
  0
LINE
  5
103
330
1F
100
AcDbEntity
  8
0
  6
Continuous
 62
     7
100
AcDbLine
 10
5281.540563731989
 20
1041.385989520138
 30
0.0
 11
5418.924963731994
 21
1041.385989520138
 31
0.0
  0
LINE
  5
104
330
1F
100
AcDbEntity
  8
0
  6
Continuous
 62
     2
100
AcDbLine
 10
5281.540563731989
 20
1040.385989520138
 30
0.0
 11
5418.924963731994
 21
1040.385989520138
 31
0.0
  0
LINE
  5
105
330
1F
100
AcDbEntity
  8
0
  6
Continuous
 62
     2
100
AcDbLine
 10
5418.924963731994
 20
1040.385989520138
 30
0.0
 11
5418.924963731994
 21
1041.385989520138
 31
0.0
  0
LINE
  5
106
330
1F
100
AcDbEntity
  8
0
  6
Continuous
 62
     7
100
AcDbLine
 10
5435.824963731995
 20
1021.984218393908
 30
0.0
 11
5439.974963731473
 21
1021.984218393908
 31
0.0
  0
LINE
  5
107
330
1F
100
AcDbEntity
  8
0
  6
Continuous
 62
     7
100
AcDbLine
 10
5447.974963731473
 20
1035.984218393908
 30
0.0
 11
5447.974963731473
 21
1029.984218393908
 31
0.0
  0
LINE
  5
108
330
1F
100
AcDbEntity
  8
0
  6
Continuous
 62
     2
100
AcDbLine
 10
5435.824963731995
 20
1022.984218393908
 30
0.0
 11
5439.974963731473
 21
1022.984218393908
 31
0.0
  0
LINE
  5
109
330
1F
100
AcDbEntity
  8
0
  6
Continuous
 62
     2
100
AcDbLine
 10
5439.974963731473
 20
1022.984218393908
 30
0.0
 11
5439.974963731473
 21
1021.984218393908
 31
0.0
  0
LINE
  5
10A
330
1F
100
AcDbEntity
  8
0
  6
Continuous
 62
     2
100
AcDbLine
 10
5270.642334859731
 20
1011.785989520136
 30
0.0
 11
5271.642334859731
 21
1011.785989520136
 31
0.0
  0
LINE
  5
10B
330
1F
100
AcDbEntity
  8
0
  6
Continuous
 62
     7
100
AcDbLine
 10
5270.642334859731
 20
1011.785989520136
 30
0.0
 11
5270.642334859731
 21
1032.984218393908
 31
0.0
  0
LINE
  5
10C
330
1F
100
AcDbEntity
  8
0
  6
Continuous
 62
     2
100
AcDbLine
 10
5271.642334859731
 20
1011.785989520136
 30
0.0
 11
5271.642334859731
 21
1032.984218393908
 31
0.0
  0
LINE
  5
10D
330
1F
100
AcDbEntity
  8
0
  6
Continuous
 62
     2
100
AcDbLine
 10
5429.824963731995
 20
1015.984218393908
 30
0.0
 11
5428.824963731995
 21
1015.984218393908
 31
0.0
  0
LINE
  5
10E
330
1F
100
AcDbEntity
  8
0
  6
Continuous
 62
     2
100
AcDbLine
 10
5253.49233485973
 20
991.7859895201358
 30
0.0
 11
5252.49233485973
 21
991.7859895201358
 31
0.0
  0
LINE
  5
10F
330
1F
100
AcDbEntity
  8
0
  6
Continuous
 62
     7
100
AcDbLine
 10
5252.49233485973
 20
991.7859895201358
 30
0.0
 11
5252.49233485973
 21
997.7859895201358
 31
0.0
  0
LINE
  5
110
330
1F
100
AcDbEntity
  8
0
  6
Continuous
 62
     2
100
AcDbLine
 10
5253.49233485973
 20
997.7859895201358
 30
0.0
 11
5252.49233485973
 21
997.7859895201358
 31
0.0
  0
LINE
  5
111
330
1F
100
AcDbEntity
  8
0
  6
Continuous
 62
     2
100
AcDbLine
 10
5264.642334859731
 20
1005.785989520136
 30
0.0
 11
5264.642334859731
 21
1004.785989520136
 31
0.0
  0
LINE
  5
112
330
1F
100
AcDbEntity
  8
0
  6
Continuous
 62
     7
100
AcDbLine
 10
5260.49233485973
 20
1005.785989520136
 30
0.0
 11
5264.642334859731
 21
1005.785989520136
 31
0.0
  0
LINE
  5
113
330
1F
100
AcDbEntity
  8
0
  6
Continuous
 62
     2
100
AcDbLine
 10
5260.49233485973
 20
1004.785989520136
 30
0.0
 11
5260.49233485973
 21
1005.785989520136
 31
0.0
  0
LINE
  5
114
330
1F
100
AcDbEntity
  8
0
  6
Continuous
 62
     2
100
AcDbLine
 10
5253.49233485973
 20
991.7859895201358
 30
0.0
 11
5253.49233485973
 21
997.7859895201358
 31
0.0
  0
LINE
  5
115
330
1F
100
AcDbEntity
  8
0
  6
Continuous
 62
     2
100
AcDbLine
 10
5260.49233485973
 20
1004.785989520136
 30
0.0
 11
5264.642334859731
 21
1004.785989520136
 31
0.0
  0
LINE
  5
116
330
1F
100
AcDbEntity
  8
0
  6
Continuous
 62
     2
100
AcDbLine
 10
5273.940563731989
 20
994.9859895203697
 30
0.0
 11
5272.940563731989
 21
994.9859895203697
 31
0.0
  0
LINE
  5
117
330
1F
100
AcDbEntity
  8
0
  6
Continuous
 62
     7
100
AcDbLine
 10
5387.646377425277
 20
983.7859895201358
 30
0.0
 11
5418.824963731995
 21
983.7859895201358
 31
0.0
  0
LINE
  5
118
330
1F
100
AcDbEntity
  8
0
  6
Continuous
 62
     7
100
AcDbLine
 10
5260.49233485973
 20
983.7859895201358
 30
0.0
 11
5312.81795138735
 21
983.7859895201358
 31
0.0
  0
LINE
  5
119
330
1F
100
AcDbEntity
  8
0
  6
Continuous
 62
     2
100
AcDbLine
 10
5260.49233485973
 20
984.7859895201358
 30
0.0
 11
5260.49233485973
 21
983.7859895201358
 31
0.0
  0
LINE
  5
11A
330
1F
100
AcDbEntity
  8
0
  6
Continuous
 62
     2
100
AcDbLine
 10
5260.49233485973
 20
984.7859895201358
 30
0.0
 11
5312.81795138735
 21
984.7859895201358
 31
0.0
  0
LINE
  5
11B
330
1F
100
AcDbEntity
  8
0
  6
Continuous
 62
     2
100
AcDbLine
 10
5387.646377425277
 20
984.7859895201358
 30
0.0
 11
5418.824963731995
 21
984.7859895201358
 31
0.0
  0
LINE
  5
11C
330
1F
100
AcDbEntity
  8
0
  6
Continuous
 62
     7
100
AcDbLine
 10
5281.540563731989
 20
986.3859895203694
 30
0.0
 11
5418.924963731994
 21
986.3859895203694
 31
0.0
  0
LINE
  5
11D
330
1F
100
AcDbEntity
  8
0
  6
Continuous
 62
     2
100
AcDbLine
 10
5418.924963731994
 20
987.3859895203694
 30
0.0
 11
5418.924963731994
 21
986.3859895203694
 31
0.0
  0
LINE
  5
11E
330
1F
100
AcDbEntity
  8
0
  6
Continuous
 62
     2
100
AcDbLine
 10
5281.540563731989
 20
987.3859895203694
 30
0.0
 11
5281.540563731989
 21
986.3859895203694
 31
0.0
  0
LINE
  5
11F
330
1F
100
AcDbEntity
  8
0
  6
Continuous
 62
     2
100
AcDbLine
 10
5285.009581469655
 20
991.3590278366083
 30
0.0
 11
5285.500069435845
 21
991.8495158027979
 31
0.0
  0
LINE
  5
120
330
1F
100
AcDbEntity
  8
0
  6
Continuous
 62
     2
100
AcDbLine
 10
5415.455945994328
 20
991.3590278366083
 30
0.0
 11
5414.965458077668
 21
991.849515753269
 31
0.0
  0
LINE
  5
121
330
1F
100
AcDbEntity
  8
0
  6
Continuous
 62
     7
100
AcDbLine
 10
5285.009581469655
 20
991.3590278366083
 30
0.0
 11
5415.455945994328
 21
991.3590278366083
 31
0.0
  0
LINE
  5
122
330
1F
100
AcDbEntity
  8
0
  6
Continuous
 62
     2
100
AcDbLine
 10
5428.824963731995
 20
994.7859895201358
 30
0.0
 11
5429.824963731995
 21
994.7859895201358
 31
0.0
  0
LINE
  5
123
330
1F
100
AcDbEntity
  8
0
  6
Continuous
 62
     2
100
AcDbLine
 10
5281.540563731989
 20
987.3859895203694
 30
0.0
 11
5418.924963731994
 21
987.3859895203694
 31
0.0
  0
LINE
  5
124
330
1F
100
AcDbEntity
  8
0
  6
Continuous
 62
     2
100
AcDbLine
 10
5271.642334859731
 20
1032.984218393908
 30
0.0
 11
5270.642334859731
 21
1032.984218393908
 31
0.0
  0
LINE
  5
125
330
1F
100
AcDbEntity
  8
0
  6
Continuous
 62
     2
100
AcDbLine
 10
5446.974963731473
 20
1035.984218393908
 30
0.0
 11
5446.974963731473
 21
1029.984218393908
 31
0.0
  0
LINE
  5
126
330
1F
100
AcDbEntity
  8
0
  6
Continuous
 62
     2
100
AcDbLine
 10
5279.025930753443
 20
1029.404582123058
 30
0.0
 11
5278.513541094031
 21
1029.91697178247
 31
0.0
  0
LINE
  5
127
330
1F
100
AcDbEntity
  8
0
  6
Continuous
 62
     2
100
AcDbLine
 10
5426.524963731995
 20
1032.785989520138
 30
0.0
 11
5427.524963731995
 21
1032.785989520138
 31
0.0
  0
LINE
  5
128
330
1F
100
AcDbEntity
  8
0
  6
Continuous
 62
     2
100
AcDbLine
 10
5446.974963731473
 20
1029.984218393908
 30
0.0
 11
5447.974963731473
 21
1029.984218393908
 31
0.0
  0
LINE
  5
129
330
1F
100
AcDbEntity
  8
0
  6
Continuous
 62
     2
100
AcDbLine
 10
5421.439596643793
 20
1029.40458205631
 30
0.0
 11
5421.951986369953
 21
1029.91697178247
 31
0.0
  0
LINE
  5
12A
330
1F
100
AcDbEntity
  8
0
  6
Continuous
 62
     2
100
AcDbLine
 10
5426.524963731995
 20
994.98598952037
 30
0.0
 11
5426.524963731995
 21
1032.785989520138
 31
0.0
  0
LINE
  5
12B
330
1F
100
AcDbEntity
  8
0
  6
Continuous
 62
     7
100
AcDbLine
 10
5427.524963731995
 20
994.98598952037
 30
0.0
 11
5427.524963731995
 21
1032.785989520138
 31
0.0
  0
LINE
  5
12C
330
1F
100
AcDbEntity
  8
0
  6
Continuous
 62
     2
100
AcDbLine
 10
5435.824963731995
 20
1021.984218393908
 30
0.0
 11
5435.824963731995
 21
1022.984218393908
 31
0.0
  0
LINE
  5
12D
330
1F
100
AcDbEntity
  8
0
  6
Continuous
 62
     7
100
AcDbLine
 10
5429.824963731995
 20
1015.984218393908
 30
0.0
 11
5429.824963731995
 21
994.7859895201358
 31
0.0
  0
LINE
  5
12E
330
1F
100
AcDbEntity
  8
0
  6
Continuous
 62
     2
100
AcDbLine
 10
5426.524963731995
 20
994.98598952037
 30
0.0
 11
5427.524963731995
 21
994.98598952037
 31
0.0
  0
LINE
  5
12F
330
1F
100
AcDbEntity
  8
0
  6
Continuous
 62
     2
100
AcDbLine
 10
5428.824963731995
 20
1015.984218393908
 30
0.0
 11
5428.824963731995
 21
994.7859895201358
 31
0.0
  0
LINE
  5
130
330
1F
100
AcDbEntity
  8
0
  6
Continuous
 62
     7
100
AcDbLine
 10
5272.940563731989
 20
1032.785989520138
 30
0.0
 11
5272.940563731989
 21
994.9859895203697
 31
0.0
  0
LINE
  5
131
330
1F
100
AcDbEntity
  8
0
  6
DASHED
 62
     3
100
AcDbLine
 10
5278.504626021379
 20
1018.885989520107
 30
0.0
 11
5278.504626021379
 21
1008.885989520108
 31
0.0
  0
LINE
  5
132
330
1F
100
AcDbEntity
  8
0
  6
Continuous
 62
     2
100
AcDbLine
 10
5273.940563731989
 20
1032.785989520138
 30
0.0
 11
5273.940563731989
 21
994.9859895203697
 31
0.0
  0
LINE
  5
133
330
1F
100
AcDbEntity
  8
0
  6
Continuous
 62
     2
100
AcDbLine
 10
5278.513541094031
 20
997.8550682122324
 30
0.0
 11
5279.025931386344
 21
998.3674585045447
 31
0.0
  0
LINE
  5
134
330
1F
100
AcDbEntity
  8
0
  6
Continuous
 62
     7
100
AcDbLine
 10
5278.513541094031
 20
1029.91697178247
 30
0.0
 11
5278.513541094031
 21
997.8550682122324
 31
0.0
  0
LINE
  5
135
330
1F
100
AcDbEntity
  8
0
  6
Continuous
 62
     2
100
AcDbLine
 10
5418.824963731995
 20
984.7859895201358
 30
0.0
 11
5418.824963731995
 21
983.7859895201358
 31
0.0
  0
LINE
  5
136
330
1F
100
AcDbEntity
  8
0
  6
Continuous
 62
     7
100
AcDbLine
 10
5421.951986369953
 20
997.8550682122326
 30
0.0
 11
5421.951986369953
 21
1029.91697178247
 31
0.0
  0
LINE
  5
137
330
1F
100
AcDbEntity
  8
0
  6
Continuous
 62
     2
100
AcDbLine
 10
5421.951986369953
 20
997.8550682122326
 30
0.0
 11
5421.439596502003
 21
998.3674580801822
 31
0.0
  0
LINE
  5
138
330
1F
100
AcDbEntity
  8
0
  6
Continuous
 62
     2
100
AcDbLine
 10
5525.699298947227
 20
991.7859895201378
 30
0.0
 11
5525.699298947227
 21
983.7859895201377
 31
0.0
  0
LINE
  5
139
330
1F
100
AcDbEntity
  8
0
  6
Continuous
 62
     7
100
AcDbLine
 10
5520.699298947227
 20
983.7859895201378
 30
0.0
 11
5525.699298947227
 21
983.7859895201377
 31
0.0
  0
LINE
  5
13A
330
1F
100
AcDbEntity
  8
0
  6
Continuous
 62
     7
100
AcDbLine
 10
5520.699298947227
 20
997.7859895201377
 30
0.0
 11
5520.699298947227
 21
991.7859895201378
 31
0.0
  0
LINE
  5
13B
330
1F
100
AcDbEntity
  8
0
  6
Continuous
 62
     2
100
AcDbLine
 10
5520.699298947227
 20
997.7859895201377
 30
0.0
 11
5525.699298947227
 21
997.7859895201377
 31
0.0
  0
LINE
  5
13C
330
1F
100
AcDbEntity
  8
0
  6
Continuous
 62
     2
100
AcDbLine
 10
5525.699298947227
 20
1005.785989520138
 30
0.0
 11
5525.699298947227
 21
997.7859895201377
 31
0.0
  0
LINE
  5
13D
330
1F
100
AcDbEntity
  8
0
  6
Continuous
 62
     7
100
AcDbLine
 10
5520.699298947227
 20
1005.785989520138
 30
0.0
 11
5525.699298947227
 21
1005.785989520138
 31
0.0
  0
LINE
  5
13E
330
1F
100
AcDbEntity
  8
0
  6
Continuous
 62
     2
100
AcDbLine
 10
5525.699298947227
 20
1005.785989520138
 30
0.0
 11
5525.699298947227
 21
1011.785989520138
 31
0.0
  0
LINE
  5
13F
330
1F
100
AcDbEntity
  8
0
  6
Continuous
 62
     7
100
AcDbLine
 10
5520.699298947227
 20
1032.98421839391
 30
0.0
 11
5520.699298947227
 21
1011.785989520138
 31
0.0
  0
LINE
  5
140
330
1F
100
AcDbEntity
  8
0
  6
Continuous
 62
     2
100
AcDbLine
 10
5520.699298947227
 20
991.7859895201378
 30
0.0
 11
5525.699298947227
 21
991.7859895201378
 31
0.0
  0
LINE
  5
141
330
1F
100
AcDbEntity
  8
0
  6
Continuous
 62
     2
100
AcDbLine
 10
5535.199298947227
 20
1032.78598952014
 30
0.0
 11
5535.199298947227
 21
994.9859895203718
 31
0.0
  0
LINE
  5
142
330
1F
100
AcDbEntity
  8
0
  6
Continuous
 62
     7
100
AcDbLine
 10
5536.199298947227
 20
1032.78598952014
 30
0.0
 11
5536.199298947227
 21
1029.916971782472
 31
0.0
  0
LINE
  5
143
330
1F
100
AcDbEntity
  8
0
  6
Continuous
 62
     2
100
AcDbLine
 10
5536.199298947227
 20
1032.78598952014
 30
0.0
 11
5535.199298947227
 21
1032.78598952014
 31
0.0
  0
LINE
  5
144
330
1F
100
AcDbEntity
  8
0
  6
Continuous
 62
     2
100
AcDbLine
 10
5535.199298947227
 20
1041.38598952014
 30
0.0
 11
5535.199298947227
 21
1032.78598952014
 31
0.0
  0
LINE
  5
145
330
1F
100
AcDbEntity
  8
0
  6
Continuous
 62
     2
100
AcDbLine
 10
5525.699298947227
 20
1011.785989520138
 30
0.0
 11
5525.699298947227
 21
1032.98421839391
 31
0.0
  0
LINE
  5
146
330
1F
100
AcDbEntity
  8
0
  6
Continuous
 62
     2
100
AcDbLine
 10
5550.872219013697
 20
1029.40458212306
 30
0.0
 11
5536.199298947227
 21
1029.916971782472
 31
0.0
  0
LINE
  5
147
330
1F
100
AcDbEntity
  8
0
  6
Continuous
 62
     7
100
AcDbLine
 10
5520.699298947227
 20
983.7859895201378
 30
0.0
 11
5520.699298947227
 21
991.7859895201378
 31
0.0
  0
LINE
  5
148
330
1F
100
AcDbEntity
  8
0
  6
Continuous
 62
     2
100
AcDbLine
 10
5526.699298947227
 20
1032.78598952014
 30
0.0
 11
5535.199298947227
 21
1032.78598952014
 31
0.0
  0
LINE
  5
149
330
1F
100
AcDbEntity
  8
0
  6
Continuous
 62
     7
100
AcDbLine
 10
5536.199298947227
 20
1029.916971782472
 30
0.0
 11
5536.199298947227
 21
997.8550682122344
 31
0.0
  0
LINE
  5
14A
330
1F
100
AcDbEntity
  8
0
  6
Continuous
 62
     7
100
AcDbLine
 10
5520.699298947227
 20
1005.785989520138
 30
0.0
 11
5520.699298947227
 21
1011.785989520138
 31
0.0
  0
LINE
  5
14B
330
1F
100
AcDbEntity
  8
0
  6
Continuous
 62
     7
100
AcDbLine
 10
5520.699298947227
 20
1005.785989520138
 30
0.0
 11
5520.699298947227
 21
997.7859895201377
 31
0.0
  0
LINE
  5
14C
330
1F
100
AcDbEntity
  8
0
  6
Continuous
 62
     7
100
AcDbLine
 10
5526.699298947227
 20
1004.785989520138
 30
0.0
 11
5526.699298947227
 21
997.7859895201377
 31
0.0
  0
LINE
  5
14D
330
1F
100
AcDbEntity
  8
0
  6
Continuous
 62
     7
100
AcDbLine
 10
5526.699298947227
 20
1004.785989520138
 30
0.0
 11
5526.699298947227
 21
1011.785989520138
 31
0.0
  0
LINE
  5
14E
330
1F
100
AcDbEntity
  8
0
  6
Continuous
 62
     7
100
AcDbLine
 10
5526.699298947227
 20
1011.785989520138
 30
0.0
 11
5526.699298947227
 21
1032.78598952014
 31
0.0
  0
LINE
  5
14F
330
1F
100
AcDbEntity
  8
0
  6
Continuous
 62
     7
100
AcDbLine
 10
5536.199298947227
 20
1040.38598952014
 30
0.0
 11
5536.199298947227
 21
1036.413012158096
 31
0.0
  0
LINE
  5
150
330
1F
100
AcDbEntity
  8
0
  6
Continuous
 62
     7
100
AcDbLine
 10
5526.699298947227
 20
1041.38598952014
 30
0.0
 11
5535.199298947227
 21
1041.38598952014
 31
0.0
  0
LINE
  5
151
330
1F
100
AcDbEntity
  8
0
  6
Continuous
 62
     7
100
AcDbLine
 10
5550.245020544612
 20
1035.922524751848
 30
0.0
 11
5536.199298947227
 21
1036.413012158096
 31
0.0
  0
LINE
  5
152
330
1F
100
AcDbEntity
  8
0
  6
Continuous
 62
     2
100
AcDbLine
 10
5525.699298947227
 20
1011.785989520138
 30
0.0
 11
5526.699298947227
 21
1011.785989520138
 31
0.0
  0
LINE
  5
153
330
1F
100
AcDbEntity
  8
0
  6
Continuous
 62
     2
100
AcDbLine
 10
5520.699298947227
 20
1011.785989520138
 30
0.0
 11
5525.699298947227
 21
1011.785989520138
 31
0.0
  0
LINE
  5
154
330
1F
100
AcDbEntity
  8
0
  6
Continuous
 62
     7
100
AcDbLine
 10
5554.699296205971
 20
1010.485989520193
 30
0.0
 11
5554.699296205971
 21
1017.285989520084
 31
0.0
  0
LINE
  5
155
330
1F
100
AcDbEntity
  8
0
  6
Continuous
 62
     7
100
AcDbLine
 10
5536.199298947227
 20
1036.413012158096
 30
0.0
 11
5536.199298947227
 21
1032.78598952014
 31
0.0
  0
LINE
  5
156
330
1F
100
AcDbEntity
  8
0
  6
Continuous
 62
     7
100
AcDbLine
 10
5520.699298947227
 20
1032.98421839391
 30
0.0
 11
5520.699298947227
 21
1043.98421839391
 31
0.0
  0
LINE
  5
157
330
1F
100
AcDbEntity
  8
0
  6
Continuous
 62
     7
100
AcDbLine
 10
5520.699298947227
 20
1043.98421839391
 30
0.0
 11
5525.699298947227
 21
1043.98421839391
 31
0.0
  0
LINE
  5
158
330
1F
100
AcDbEntity
  8
0
  6
Continuous
 62
     7
100
AcDbLine
 10
5526.699298947227
 20
1032.78598952014
 30
0.0
 11
5526.699298947227
 21
1032.98421839391
 31
0.0
  0
LINE
  5
159
330
1F
100
AcDbEntity
  8
0
  6
Continuous
 62
     2
100
AcDbLine
 10
5525.699298947227
 20
1043.98421839391
 30
0.0
 11
5525.699298947227
 21
1032.98421839391
 31
0.0
  0
LINE
  5
15A
330
1F
100
AcDbEntity
  8
0
  6
Continuous
 62
     7
100
AcDbLine
 10
5526.699298947227
 20
1042.98421839391
 30
0.0
 11
5526.699298947227
 21
1041.38598952014
 31
0.0
  0
LINE
  5
15B
330
1F
100
AcDbEntity
  8
0
  6
Continuous
 62
     2
100
AcDbLine
 10
5526.699298947227
 20
1032.98421839391
 30
0.0
 11
5525.699298947227
 21
1032.98421839391
 31
0.0
  0
LINE
  5
15C
330
1F
100
AcDbEntity
  8
0
  6
Continuous
 62
     2
100
AcDbLine
 10
5520.699298947227
 20
1032.98421839391
 30
0.0
 11
5525.699298947227
 21
1032.98421839391
 31
0.0
  0
LINE
  5
15D
330
1F
100
AcDbEntity
  8
0
  6
Continuous
 62
     7
100
AcDbLine
 10
5526.699298947227
 20
1041.38598952014
 30
0.0
 11
5526.699298947227
 21
1032.98421839391
 31
0.0
  0
LINE
  5
15E
330
1F
100
AcDbEntity
  8
0
  6
Continuous
 62
     2
100
AcDbLine
 10
5526.699298947227
 20
997.7859895201377
 30
0.0
 11
5525.699298947227
 21
997.7859895201377
 31
0.0
  0
LINE
  5
15F
330
1F
100
AcDbEntity
  8
0
  6
Continuous
 62
     7
100
AcDbLine
 10
5526.699298947227
 20
994.9859895203718
 30
0.0
 11
5526.699298947227
 21
997.7859895201377
 31
0.0
  0
LINE
  5
160
330
1F
100
AcDbEntity
  8
0
  6
Continuous
 62
     2
100
AcDbLine
 10
5525.699298947227
 20
991.7859895201378
 30
0.0
 11
5525.699298947227
 21
997.7859895201377
 31
0.0
  0
LINE
  5
161
330
1F
100
AcDbEntity
  8
0
  6
Continuous
 62
     7
100
AcDbLine
 10
5536.199298947227
 20
997.8550682122344
 30
0.0
 11
5536.199298947227
 21
994.9859895203718
 31
0.0
  0
LINE
  5
162
330
1F
100
AcDbEntity
  8
0
  6
Continuous
 62
     2
100
AcDbLine
 10
5535.199298947227
 20
994.9859895203718
 30
0.0
 11
5535.199298947227
 21
986.3859895203716
 31
0.0
  0
LINE
  5
163
330
1F
100
AcDbEntity
  8
0
  6
Continuous
 62
     7
100
AcDbLine
 10
5526.699298947227
 20
991.7859895201378
 30
0.0
 11
5526.699298947227
 21
986.3859895203716
 31
0.0
  0
LINE
  5
164
330
1F
100
AcDbEntity
  8
0
  6
Continuous
 62
     7
100
AcDbLine
 10
5526.699298947227
 20
986.3859895203716
 30
0.0
 11
5526.699298947227
 21
984.7859895201378
 31
0.0
  0
LINE
  5
165
330
1F
100
AcDbEntity
  8
0
  6
Continuous
 62
     7
100
AcDbLine
 10
5526.699298947227
 20
986.3859895203716
 30
0.0
 11
5535.199298947227
 21
986.3859895203716
 31
0.0
  0
LINE
  5
166
330
1F
100
AcDbEntity
  8
0
  6
Continuous
 62
     2
100
AcDbLine
 10
5526.699298947227
 20
991.7859895201378
 30
0.0
 11
5525.699298947227
 21
991.7859895201378
 31
0.0
  0
LINE
  5
167
330
1F
100
AcDbEntity
  8
0
  6
Continuous
 62
     2
100
AcDbLine
 10
5536.199298947227
 20
994.9859895203718
 30
0.0
 11
5535.199298947227
 21
994.9859895203718
 31
0.0
  0
LINE
  5
168
330
1F
100
AcDbEntity
  8
0
  6
Continuous
 62
     7
100
AcDbLine
 10
5536.199298947227
 20
994.9859895203718
 30
0.0
 11
5536.199298947227
 21
991.3590278366104
 31
0.0
  0
LINE
  5
169
330
1F
100
AcDbEntity
  8
0
  6
Continuous
 62
     2
100
AcDbLine
 10
5526.699298947227
 20
994.9859895203718
 30
0.0
 11
5535.199298947227
 21
994.9859895203718
 31
0.0
  0
LINE
  5
16A
330
1F
100
AcDbEntity
  8
0
  6
Continuous
 62
     7
100
AcDbLine
 10
5536.199298947227
 20
991.3590278366104
 30
0.0
 11
5536.199298947227
 21
987.3859895203716
 31
0.0
  0
LINE
  5
16B
330
1F
100
AcDbEntity
  8
0
  6
Continuous
 62
     7
100
AcDbLine
 10
5526.699298947227
 20
991.7859895201378
 30
0.0
 11
5526.699298947227
 21
994.9859895203718
 31
0.0
  0
LINE
  5
16C
330
1F
100
AcDbEntity
  8
0
  6
Continuous
 62
     7
100
AcDbLine
 10
5536.199298947227
 20
991.3590278366104
 30
0.0
 11
5550.245036579258
 21
991.8495158028
 31
0.0
  0
LINE
  5
16D
330
1F
100
AcDbEntity
  8
0
  6
Continuous
 62
     2
100
AcDbLine
 10
5536.199298947227
 20
997.8550682122344
 30
0.0
 11
5550.872237137592
 21
998.367458504547
 31
0.0
  0
LINE
  5
16E
330
1F
100
AcDbEntity
  8
0
  6
Continuous
 62
     2
100
AcDbLine
 10
5292.337868439798
 20
1029.927905538132
 30
0.0
 11
5300.738972115923
 21
1025.125795391073
 31
0.0
  0
LINE
  5
16F
330
1F
100
AcDbEntity
  8
0
  6
Continuous
 62
     2
100
AcDbLine
 10
5292.007671322681
 20
1020.034847761773
 30
0.0
 11
5283.606659339921
 21
1024.836798282175
 31
0.0
  0
LINE
  5
170
330
1F
100
AcDbEntity
  8
0
  6
Continuous
 62
     2
100
AcDbLine
 10
5300.738972115923
 20
1024.836959496954
 30
0.0
 11
5292.337868439798
 21
1020.034849349894
 31
0.0
  0
LINE
  5
171
330
1F
100
AcDbEntity
  8
0
  6
Continuous
 62
     2
100
AcDbLine
 10
5300.321218624462
 20
1024.981377444013
 30
0.0
 11
5292.172768492048
 21
1029.639069644014
 31
0.0
  0
LINE
  5
172
330
1F
100
AcDbEntity
  8
0
  6
Continuous
 62
     2
100
AcDbLine
 10
5292.172768492048
 20
1020.323685244014
 30
0.0
 11
5300.321218624462
 21
1024.981377444013
 31
0.0
  0
LINE
  5
173
330
1F
100
AcDbEntity
  8
0
  6
Continuous
 62
     2
100
AcDbLine
 10
5296.331329904472
 20
1023.275496935575
 30
0.0
 11
5295.000560704457
 21
1022.514879255425
 31
0.0
  0
LINE
  5
174
330
1F
100
AcDbEntity
  8
0
  6
Continuous
 62
     2
100
AcDbLine
 10
5295.166999192047
 20
1023.376428801017
 30
0.0
 11
5295.998822279637
 21
1023.851843485268
 31
0.0
  0
LINE
  5
175
330
1F
100
AcDbEntity
  8
0
  6
Continuous
 62
     2
100
AcDbLine
 10
5295.166999192047
 20
1024.648685144014
 30
0.0
 11
5295.166999192047
 21
1023.376428801017
 31
0.0
  0
LINE
  5
176
330
1F
100
AcDbEntity
  8
0
  6
Continuous
 62
     2
100
AcDbLine
 10
5295.166999192047
 20
1024.648685144014
 30
0.0
 11
5296.165076092046
 21
1024.648685144014
 31
0.0
  0
LINE
  5
177
330
1F
100
AcDbEntity
  8
0
  6
Continuous
 62
     2
100
AcDbLine
 10
5292.172768492048
 20
1026.280800987953
 30
0.0
 11
5293.215417708603
 21
1028.086722405501
 31
0.0
  0
LINE
  5
178
330
1F
100
AcDbEntity
  8
0
  6
Continuous
 62
     2
100
AcDbLine
 10
5295.166999192047
 20
1025.314069744014
 30
0.0
 11
5296.165076092046
 21
1025.314069744014
 31
0.0
  0
LINE
  5
179
330
1F
100
AcDbEntity
  8
0
  6
Continuous
 62
     2
100
AcDbLine
 10
5295.998822279633
 20
1026.110855185153
 30
0.0
 11
5295.166999192047
 21
1026.586329151843
 31
0.0
  0
LINE
  5
17A
330
1F
100
AcDbEntity
  8
0
  6
Continuous
 62
     2
100
AcDbLine
 10
5295.000560704459
 20
1027.447875632601
 30
0.0
 11
5296.331329904437
 21
1026.687201734864
 31
0.0
  0
LINE
  5
17B
330
1F
100
AcDbEntity
  8
0
  6
Continuous
 62
     2
100
AcDbLine
 10
5293.170845392047
 20
1026.678751688613
 30
0.0
 11
5293.170845392047
 21
1022.042378632525
 31
0.0
  0
LINE
  5
17C
330
1F
100
AcDbEntity
  8
0
  6
Continuous
 62
     2
100
AcDbLine
 10
5294.501614592046
 20
1027.159702357751
 30
0.0
 11
5294.501614592046
 21
1022.803052530276
 31
0.0
  0
LINE
  5
17D
330
1F
100
AcDbEntity
  8
0
  6
Continuous
 62
     2
100
AcDbLine
 10
5293.170845392047
 20
1026.678751688613
 30
0.0
 11
5292.316828483769
 21
1025.199551012953
 31
0.0
  0
LINE
  5
17E
330
1F
100
AcDbEntity
  8
0
  6
Continuous
 62
     2
100
AcDbLine
 10
5295.166999192047
 20
1026.586329151843
 30
0.0
 11
5295.166999192047
 21
1025.314069744014
 31
0.0
  0
LINE
  5
17F
330
1F
100
AcDbEntity
  8
0
  6
Continuous
 62
     2
100
AcDbLine
 10
5293.836229992047
 20
1027.920376255501
 30
0.0
 11
5293.836229992047
 21
1022.042378632525
 31
0.0
  0
LINE
  5
180
330
1F
100
AcDbEntity
  8
0
  6
Continuous
 62
     2
100
AcDbLine
 10
5292.172768492048
 20
1029.639069644014
 30
0.0
 11
5284.024136427228
 21
1024.981377444013
 31
0.0
  0
LINE
  5
181
330
1F
100
AcDbEntity
  8
0
  6
Continuous
 62
     2
100
AcDbLine
 10
5291.130119275491
 20
1028.086722405501
 30
0.0
 11
5292.172768492048
 21
1026.280800987953
 31
0.0
  0
LINE
  5
182
330
1F
100
AcDbEntity
  8
0
  6
Continuous
 62
     2
100
AcDbLine
 10
5292.028708500324
 20
1025.199551012953
 30
0.0
 11
5291.174691592047
 21
1026.678751688613
 31
0.0
  0
LINE
  5
183
330
1F
100
AcDbEntity
  8
0
  6
Continuous
 62
     2
100
AcDbLine
 10
5291.673822379633
 20
1021.183687341447
 30
0.0
 11
5289.511414767218
 21
1022.419702047896
 31
0.0
  0
LINE
  5
184
330
1F
100
AcDbEntity
  8
0
  6
Continuous
 62
     2
100
AcDbLine
 10
5289.843922392047
 20
1022.996048597593
 30
0.0
 11
5292.006330004486
 21
1021.76003389113
 31
0.0
  0
LINE
  5
185
330
1F
100
AcDbEntity
  8
0
  6
Continuous
 62
     2
100
AcDbLine
 10
5284.024136427228
 20
1024.981377444013
 30
0.0
 11
5292.172768492048
 21
1020.323685244014
 31
0.0
  0
LINE
  5
186
330
1F
100
AcDbEntity
  8
0
  6
Continuous
 62
     2
100
AcDbLine
 10
5290.509306992046
 20
1027.920376255501
 30
0.0
 11
5290.509306992046
 21
1023.563670210417
 31
0.0
  0
LINE
  5
187
330
1F
100
AcDbEntity
  8
0
  6
Continuous
 62
     2
100
AcDbLine
 10
5291.174691592047
 20
1026.678751688613
 30
0.0
 11
5291.174691592047
 21
1023.563670210417
 31
0.0
  0
LINE
  5
188
330
1F
100
AcDbEntity
  8
0
  6
Continuous
 62
     2
100
AcDbLine
 10
5288.513153192047
 20
1026.39908467761
 30
0.0
 11
5288.513153192047
 21
1023.563670210417
 31
0.0
  0
LINE
  5
189
330
1F
100
AcDbEntity
  8
0
  6
Continuous
 62
     2
100
AcDbLine
 10
5287.847768592047
 20
1026.39908467761
 30
0.0
 11
5287.847768592047
 21
1023.563670210417
 31
0.0
  0
LINE
  5
18A
330
1F
100
AcDbEntity
  8
0
  6
Continuous
 62
     2
100
AcDbLine
 10
5289.843922392047
 20
1027.166836139148
 30
0.0
 11
5289.843922392047
 21
1022.996048597593
 31
0.0
  0
LINE
  5
18B
330
1F
100
AcDbEntity
  8
0
  6
Continuous
 62
     2
100
AcDbLine
 10
5289.178537792048
 20
1027.166836139148
 30
0.0
 11
5289.178537792048
 21
1022.996048597594
 31
0.0
  0
LINE
  5
18C
330
1F
100
AcDbEntity
  8
0
  6
Continuous
 62
     2
100
AcDbLine
 10
5283.606659339921
 20
1025.125956605853
 30
0.0
 11
5292.007671322681
 21
1029.927907126253
 31
0.0
  0
LWPOLYLINE
  5
18D
330
1F
100
AcDbEntity
  8
Skizziergeometrie_ISO_
  6
Continuous
 62
     7
100
AcDbPolyline
 90
        2
 70
     0
 43
0.5
 10
5310.699298947227
 20
808.6925014954597
 10
5310.699298947227
 20
738.6925014954597
  0
LWPOLYLINE
  5
18E
330
1F
100
AcDbEntity
  8
Skizziergeometrie_ISO_
  6
Continuous
 62
     7
100
AcDbPolyline
 90
        2
 70
     0
 43
0.5
 10
5625.399298947226
 20
768.6925014954597
 10
5625.399298947226
 20
738.6925014954597
  0
LWPOLYLINE
  5
18F
330
1F
100
AcDbEntity
  8
Skizziergeometrie_ISO_
  6
Continuous
 62
     7
100
AcDbPolyline
 90
        2
 70
     0
 43
0.5
 10
5590.699298947227
 20
768.6925014954597
 10
5590.699298947227
 20
738.6925014954597
  0
LWPOLYLINE
  5
190
330
1F
100
AcDbEntity
  8
Skizziergeometrie_ISO_
  6
Continuous
 62
     7
100
AcDbPolyline
 90
        2
 70
     0
 43
0.5
 10
5370.699298947227
 20
738.6925014954597
 10
5370.699298947227
 20
768.6925014954597
  0
LWPOLYLINE
  5
191
330
1F
100
AcDbEntity
  8
Skizziergeometrie_ISO_
  6
Continuous
 62
     7
100
AcDbPolyline
 90
        2
 70
     0
 43
0.5
 10
5360.699298947227
 20
808.6925014954597
 10
5360.699298947227
 20
768.6925014954597
  0
LWPOLYLINE
  5
192
330
1F
100
AcDbEntity
  8
Skizziergeometrie_ISO_
  6
Continuous
 62
     7
100
AcDbPolyline
 90
        2
 70
     0
 43
0.5
 10
5324.699298947227
 20
808.6925014954597
 10
5324.699298947227
 20
768.6925014954597
  0
LWPOLYLINE
  5
193
330
1F
100
AcDbEntity
  8
Skizziergeometrie_ISO_
  6
Continuous
 62
     7
100
AcDbPolyline
 90
        2
 70
     0
 43
0.5
 10
5310.699298947227
 20
753.6925014954597
 10
5370.699298947227
 20
753.6925014954597
  0
LWPOLYLINE
  5
194
330
1F
100
AcDbEntity
  8
Skizziergeometrie_ISO_
  6
Continuous
 62
     7
100
AcDbPolyline
 90
        2
 70
     0
 43
0.5
 10
5647.760623812632
 20
754.2342104757415
 42
0.57735026918897
 10
5648.33797408182
 20
754.2342104757415
 42
0.57735026918897
  0
LWPOLYLINE
  5
195
330
1F
100
AcDbEntity
  8
Skizziergeometrie_ISO_
  6
Continuous
 62
     7
100
AcDbPolyline
 90
        2
 70
     0
 43
0.5
 10
5642.049300964833
 20
749.2325451711837
 42
0.26803505952201
 10
5642.716339896795
 20
748.0776272416643
 42
0.26803505952201
  0
LWPOLYLINE
  5
196
330
1F
100
AcDbEntity
  8
Skizziergeometrie_ISO_
  6
Continuous
 62
     7
100
AcDbPolyline
 90
        2
 70
     0
 43
0.5
 10
5664.882169497509
 20
753.4037729667771
 42
0.57756392459821
 10
5664.882169497509
 20
753.9812300241423
 42
0.57756392459821
  0
LWPOLYLINE
  5
197
102
{ACAD_REACTORS
330
266
102
}
330
1F
100
AcDbEntity
  8
Skizziergeometrie_ISO_
  6
Continuous
 62
     7
100
AcDbPolyline
 90
        2
 70
     0
 43
0.5
 10
5653.71577856528
 20
759.1566351007717
 42
0.57724345630707
 10
5652.715963596287
 20
758.5791780434059
 42
0.57724345630707
  0
LWPOLYLINE
  5
198
102
{ACAD_REACTORS
330
266
102
}
330
1F
100
AcDbEntity
  8
Skizziergeometrie_ISO_
  6
Continuous
 62
     7
100
AcDbPolyline
 90
        2
 70
     0
 43
0.5
 10
5652.715963596287
 20
748.8058249475135
 42
0.57724345630707
 10
5653.71577856528
 20
748.2283678901478
 42
0.57724345630707
  0
LWPOLYLINE
  5
199
330
1F
100
AcDbEntity
  8
Skizziergeometrie_ISO_
  6
Continuous
 62
     7
100
AcDbPolyline
 90
        2
 70
     0
 43
0.5
 10
5645.704843806992
 20
760.4615836412967
 42
0.76732698797919
 10
5644.715976439744
 20
760.1966174288215
 42
0.76732698797919
  0
LWPOLYLINE
  5
19A
330
1F
100
AcDbEntity
  8
Skizziergeometrie_ISO_
  6
Continuous
 62
     7
100
AcDbPolyline
 90
        2
 70
     0
 43
0.5
 10
5644.715976439746
 20
750.3859627135865
 42
1.0
 10
5646.049309773078
 20
750.3859627135865
 42
1.0
  0
LWPOLYLINE
  5
19B
330
1F
100
AcDbEntity
  8
Skizziergeometrie_ISO_
  6
Continuous
 62
     7
100
AcDbPolyline
 90
        2
 70
     0
 43
0.5
 10
5650.049288121374
 20
747.2673583273709
 42
1.0
 10
5651.382621454708
 20
747.2673583273709
 42
1.0
  0
LWPOLYLINE
  5
19C
330
1F
100
AcDbEntity
  8
Skizziergeometrie_ISO_
  6
Continuous
 62
     7
100
AcDbPolyline
 90
        2
 70
     0
 43
0.5
 10
5651.382621454708
 20
760.1966174288214
 42
0.76732698797878
 10
5650.39375408746
 20
760.4615836412967
 42
0.76732698797878
  0
LWPOLYLINE
  5
19D
330
1F
100
AcDbEntity
  8
Skizziergeometrie_ISO_
  6
Continuous
 62
     7
100
AcDbPolyline
 90
        2
 70
     0
 43
0.5
 10
5643.382634298167
 20
758.5791780434059
 42
1.0
 10
5642.049300964833
 20
758.5791780434059
 42
1.0
  0
LWPOLYLINE
  5
19E
330
1F
100
AcDbEntity
  8
Skizziergeometrie_ISO_
  6
Continuous
 62
     7
100
AcDbPolyline
 90
        2
 70
     0
 43
0.5
 10
5647.05161030614
 20
745.576509697812
 42
1.00000000000059
 10
5647.717906910792
 20
746.7314238125435
 42
1.00000000000059
  0
LWPOLYLINE
  5
19F
330
1F
100
AcDbEntity
  8
Skizziergeometrie_ISO_
  6
Continuous
 62
     7
100
AcDbPolyline
 90
        2
 70
     0
 43
0.5
 10
5640.715965613892
 20
756.9990402773329
 42
1.0
 10
5639.38263228056
 20
756.9990402773329
 42
1.0
  0
LWPOLYLINE
  5
1A0
330
1F
100
AcDbEntity
  8
Skizziergeometrie_ISO_
  6
Continuous
 62
     7
100
AcDbPolyline
 90
        2
 70
     0
 43
0.5
 10
5639.38263228056
 20
750.3859627135865
 42
1.0
 10
5640.715965613892
 20
750.3859627135865
 42
1.0
  0
LWPOLYLINE
  5
1A1
102
{ACAD_REACTORS
330
266
102
}
330
1F
100
AcDbEntity
  8
Skizziergeometrie_ISO_
  6
Continuous
 62
     7
100
AcDbPolyline
 90
        2
 70
     0
 43
0.5
 10
5655.788387421821
 20
756.4215832199671
 42
1.00000000000059
 10
5656.454684026472
 20
757.5764973346987
 42
1.00000000000059
  0
LWPOLYLINE
  5
1A2
102
{ACAD_REACTORS
330
266
102
}
330
1F
100
AcDbEntity
  8
Skizziergeometrie_ISO_
  6
Continuous
 62
     7
100
AcDbPolyline
 90
        2
 70
     0
 43
0.5
 10
5656.121535724147
 20
753.0258348287929
 42
1.0
 10
5656.121535724147
 20
754.3591681621265
 42
1.0
  0
LWPOLYLINE
  5
1A3
102
{ACAD_REACTORS
330
266
102
}
330
1F
100
AcDbEntity
  8
Skizziergeometrie_ISO_
  6
Continuous
 62
     7
100
AcDbPolyline
 90
        2
 70
     0
 43
0.5
 10
5656.454684026472
 20
749.8085056562207
 42
1.00000000000059
 10
5655.788387421821
 20
750.9634197709523
 42
1.00000000000059
  0
ARC
  5
1A4
330
1F
100
AcDbEntity
  8
0
  6
Continuous
 62
     7
100
AcDbCircle
 10
5653.382630262955
 20
748.8058249475135
 30
0.0
 40
0.6666666666678793
100
AcDbArc
 50
180.0
 51
299.9816393687321
  0
ARC
  5
1A5
330
1F
100
AcDbEntity
  8
0
  6
Continuous
 62
     7
100
AcDbCircle
 10
5653.382630262955
 20
758.5791780434059
 30
0.0
 40
0.6666666666659464
100
AcDbArc
 50
60.01836063126785
 51
180.0
  0
ARC
  5
1A6
330
1F
100
AcDbEntity
  8
0
  6
Continuous
 62
     7
100
AcDbCircle
 10
5656.121535724147
 20
756.9990402773329
 30
0.0
 40
0.666666666666401
100
AcDbArc
 50
240.0183606312001
 51
60.0183594238447
  0
ARC
  5
1A7
330
1F
100
AcDbEntity
  8
0
  6
Continuous
 62
     7
100
AcDbCircle
 10
5656.121535724147
 20
753.6925014954597
 30
0.0
 40
0.6666666666668561
100
AcDbArc
 50
270.0
 51
90.0
  0
ARC
  5
1A8
330
1F
100
AcDbEntity
  8
0
  6
Continuous
 62
     7
100
AcDbCircle
 10
5656.121535724147
 20
750.3859627135865
 30
0.0
 40
0.6666666666659464
100
AcDbArc
 50
299.9816393687321
 51
119.9816393687998
  0
ARC
  5
1A9
102
{ACAD_REACTORS
330
269
102
}
330
1F
100
AcDbEntity
  8
0
  6
Continuous
 62
     7
100
AcDbCircle
 10
5645.245908864696
 20
760.1966174288215
 30
0.0
 40
0.5299324249509441
100
AcDbArc
 50
29.9999999999662
 51
180.0
  0
ARC
  5
1AA
102
{ACAD_REACTORS
330
269
102
}
330
1F
100
AcDbEntity
  8
0
  6
Continuous
 62
     7
100
AcDbCircle
 10
5645.382643106412
 20
750.3859627135865
 30
0.0
 40
0.6666666666660603
100
AcDbArc
 50
180.0
 51
0.0
  0
ARC
  5
1AB
102
{ACAD_REACTORS
330
269
102
}
330
1F
100
AcDbEntity
  8
0
  6
Continuous
 62
     7
100
AcDbCircle
 10
5648.049298947226
 20
754.4008771424081
 30
0.0
 40
0.3333333333326854
100
AcDbArc
 50
210.0000000000568
 51
329.9999999999432
  0
ARC
  5
1AC
102
{ACAD_REACTORS
330
269
102
}
330
1F
100
AcDbEntity
  8
0
  6
Continuous
 62
     7
100
AcDbCircle
 10
5650.71595478804
 20
747.2673583273709
 30
0.0
 40
0.6666666666660603
100
AcDbArc
 50
180.0
 51
0.0
  0
ARC
  5
1AD
102
{ACAD_REACTORS
330
269
102
}
330
1F
100
AcDbEntity
  8
0
  6
Continuous
 62
     7
100
AcDbCircle
 10
5650.852689029756
 20
760.1966174288214
 30
0.0
 40
0.5299324249517667
100
AcDbArc
 50
0.0
 51
149.999999999974
  0
ARC
  5
1AE
102
{ACAD_REACTORS
330
268
102
}
330
1F
100
AcDbEntity
  8
0
  6
Continuous
 62
     7
100
AcDbCircle
 10
5642.715967631499
 20
758.5791780434059
 30
0.0
 40
0.6666666666687888
100
AcDbArc
 50
0.0
 51
180.0
  0
ARC
  5
1AF
102
{ACAD_REACTORS
330
268
102
}
330
1F
100
AcDbEntity
  8
0
  6
Continuous
 62
     7
100
AcDbCircle
 10
5643.382638702287
 20
749.2325451711837
 30
0.0
 40
1.333337737454713
100
AcDbArc
 50
180.0
 51
240.0183606311383
  0
ARC
  5
1B0
102
{ACAD_REACTORS
330
268
102
}
330
1F
100
AcDbEntity
  8
0
  6
Continuous
 62
     7
100
AcDbCircle
 10
5647.384758608467
 20
746.1539667551777
 30
0.0
 40
0.6666666666668554
100
AcDbArc
 50
240.0183606311324
 51
60.01836063120015
  0
ARC
  5
1B1
102
{ACAD_REACTORS
330
267
102
}
330
1F
100
AcDbEntity
  8
0
  6
Continuous
 62
     7
100
AcDbCircle
 10
5640.049298947226
 20
750.3859627135865
 30
0.0
 40
0.6666666666660603
100
AcDbArc
 50
180.0
 51
0.0
  0
ARC
  5
1B2
102
{ACAD_REACTORS
330
267
102
}
330
1F
100
AcDbEntity
  8
0
  6
Continuous
 62
     7
100
AcDbCircle
 10
5640.049298947226
 20
756.9990402773329
 30
0.0
 40
0.6666666666660603
100
AcDbArc
 50
0.0
 51
180.0
  0
ARC
  5
1B3
330
1F
100
AcDbEntity
  8
0
  6
Continuous
 62
     2
100
AcDbCircle
 10
5472.800754348606
 20
1010.465200125495
 30
0.0
 40
79.00323902979017
100
AcDbArc
 50
351.1916594277355
 51
0.01487927443767
  0
ARC
  5
1B4
330
1F
100
AcDbEntity
  8
0
  6
Continuous
 62
     7
100
AcDbCircle
 10
5253.510334859731
 20
887.9450184306646
 30
0.0
 40
1.0
100
AcDbArc
 50
180.0
 51
270.0
  0
ARC
  5
1B5
330
1F
100
AcDbEntity
  8
0
  6
Continuous
 62
     7
100
AcDbCircle
 10
5346.626499340759
 20
890.4450184306646
 30
0.0
 40
1.499999999999997
100
AcDbArc
 50
185.0000000000042
 51
270.0
  0
ARC
  5
1B6
330
1F
100
AcDbEntity
  8
0
  6
Continuous
 62
     7
100
AcDbCircle
 10
5356.971577202531
 20
891.4450184306646
 30
0.0
 40
1.499999999999886
100
AcDbArc
 50
90.0
 51
175.0000000000014
  0
ARC
  5
1B7
330
1F
100
AcDbEntity
  8
0
  6
Continuous
 62
     7
100
AcDbCircle
 10
5353.872629026375
 20
890.4450184306645
 30
0.0
 40
1.5
100
AcDbArc
 50
270.0
 51
355.0000000000075
  0
ARC
  5
1B8
330
1F
100
AcDbEntity
  8
0
  6
Continuous
 62
     7
100
AcDbCircle
 10
5343.527551164604
 20
891.4450184306645
 30
0.0
 40
1.499999999999987
100
AcDbArc
 50
4.99999999999984
 51
89.99999999996527
  0
ARC
  5
1B9
330
1F
100
AcDbEntity
  8
0
  6
Continuous
 62
     7
100
AcDbCircle
 10
5426.542963731996
 20
878.4450184306647
 30
0.0
 40
1.0
100
AcDbArc
 50
270.0
 51
0.0
  0
ARC
  5
1BA
330
1F
100
AcDbEntity
  8
0
  6
Continuous
 62
     7
100
AcDbCircle
 10
5446.992963731473
 20
887.9450184306646
 30
0.0
 40
1.000000000000114
100
AcDbArc
 50
270.0
 51
0.0
  0
ARC
  5
1BB
330
1F
100
AcDbEntity
  8
0
  6
Continuous
 62
     7
100
AcDbCircle
 10
5418.426882804558
 20
861.945021503641
 30
0.0
 40
3.000003110791605
100
AcDbArc
 50
270.0000089872819
 51
357.9999974138816
  0
ARC
  5
1BC
330
1F
100
AcDbEntity
  8
0
  6
Continuous
 62
     7
100
AcDbCircle
 10
5273.95856373199
 20
878.4450184306647
 30
0.0
 40
1.0
100
AcDbArc
 50
180.0
 51
270.0
  0
ARC
  5
1BD
330
1F
100
AcDbEntity
  8
0
  6
Continuous
 62
     7
100
AcDbCircle
 10
5271.660334859731
 20
887.9450184306646
 30
0.0
 40
1.0
100
AcDbArc
 50
180.0
 51
270.0
  0
ARC
  5
1BE
330
1F
100
AcDbEntity
  8
0
  6
Continuous
 62
     7
100
AcDbCircle
 10
5282.074648080922
 20
861.9450279262675
 30
0.0
 40
3.000006754348789
100
AcDbArc
 50
182.0000370175295
 51
270.0000370175666
  0
ARC
  5
1BF
330
1F
100
AcDbEntity
  8
0
  6
Continuous
 62
     2
100
AcDbCircle
 10
5281.540563731989
 20
1032.785989520138
 30
0.0
 40
7.600000000000136
100
AcDbArc
 50
90.0
 51
180.0
  0
ARC
  5
1C0
330
1F
100
AcDbEntity
  8
0
  6
Continuous
 62
     7
100
AcDbCircle
 10
5281.540563731989
 20
1032.785989520138
 30
0.0
 40
8.600000000000136
100
AcDbArc
 50
90.0
 51
180.0
  0
ARC
  5
1C1
330
1F
100
AcDbEntity
  8
0
  6
Continuous
 62
     2
100
AcDbCircle
 10
5281.642334859731
 20
1032.984218393908
 30
0.0
 40
10.0
100
AcDbArc
 50
90.0
 51
180.0
  0
ARC
  5
1C2
330
1F
100
AcDbEntity
  8
0
  6
Continuous
 62
     2
100
AcDbCircle
 10
5418.924963731995
 20
1032.785989520138
 30
0.0
 40
7.599999999999454
100
AcDbArc
 50
0.0
 51
90.00000000001371
  0
ARC
  5
1C3
330
1F
100
AcDbEntity
  8
0
  6
Continuous
 62
     7
100
AcDbCircle
 10
5418.924963731995
 20
1032.785989520138
 30
0.0
 40
8.599999999999454
100
AcDbArc
 50
0.0
 51
90.00000000001214
  0
ARC
  5
1C4
330
1F
100
AcDbEntity
  8
0
  6
Continuous
 62
     7
100
AcDbCircle
 10
5439.974963731473
 20
1029.984218393908
 30
0.0
 40
7.999999999999886
100
AcDbArc
 50
270.0
 51
0.0
  0
ARC
  5
1C5
330
1F
100
AcDbEntity
  8
0
  6
Continuous
 62
     2
100
AcDbCircle
 10
5439.974963731473
 20
1035.984218393908
 30
0.0
 40
7.0
100
AcDbArc
 50
0.0
 51
90.0
  0
ARC
  5
1C6
330
1F
100
AcDbEntity
  8
0
  6
Continuous
 62
     2
100
AcDbCircle
 10
5439.974963731473
 20
1029.984218393908
 30
0.0
 40
6.999999999999886
100
AcDbArc
 50
270.0
 51
0.0
  0
ARC
  5
1C7
330
1F
100
AcDbEntity
  8
0
  6
Continuous
 62
     7
100
AcDbCircle
 10
5439.974963731473
 20
1035.984218393908
 30
0.0
 40
8.0
100
AcDbArc
 50
0.0
 51
90.0
  0
ARC
  5
1C8
330
1F
100
AcDbEntity
  8
0
  6
Continuous
 62
     7
100
AcDbCircle
 10
5264.642334859731
 20
1011.785989520136
 30
0.0
 40
6.0
100
AcDbArc
 50
270.0
 51
0.0
  0
ARC
  5
1C9
330
1F
100
AcDbEntity
  8
0
  6
Continuous
 62
     2
100
AcDbCircle
 10
5264.642334859731
 20
1011.785989520136
 30
0.0
 40
7.0
100
AcDbArc
 50
270.0
 51
0.0
  0
ARC
  5
1CA
330
1F
100
AcDbEntity
  8
0
  6
Continuous
 62
     7
100
AcDbCircle
 10
5260.49233485973
 20
991.7859895201358
 30
0.0
 40
8.0
100
AcDbArc
 50
180.0
 51
270.0
  0
ARC
  5
1CB
330
1F
100
AcDbEntity
  8
0
  6
Continuous
 62
     7
100
AcDbCircle
 10
5260.49233485973
 20
997.7859895201358
 30
0.0
 40
8.000000000000227
100
AcDbArc
 50
90.0
 51
180.0
  0
ARC
  5
1CC
330
1F
100
AcDbEntity
  8
0
  6
Continuous
 62
     2
100
AcDbCircle
 10
5260.49233485973
 20
991.7859895201358
 30
0.0
 40
7.0
100
AcDbArc
 50
180.0
 51
270.0
  0
ARC
  5
1CD
330
1F
100
AcDbEntity
  8
0
  6
Continuous
 62
     2
100
AcDbCircle
 10
5260.49233485973
 20
997.7859895201358
 30
0.0
 40
7.000000000000227
100
AcDbArc
 50
90.0
 51
180.0
  0
ARC
  5
1CE
330
1F
100
AcDbEntity
  8
0
  6
Continuous
 62
     7
100
AcDbCircle
 10
5285.009581469655
 20
997.8550682122324
 30
0.0
 40
6.496040375624034
100
AcDbArc
 50
180.0
 51
270.0
  0
ARC
  5
1CF
330
1F
100
AcDbEntity
  8
0
  6
Continuous
 62
     2
100
AcDbCircle
 10
5281.540563731989
 20
994.9859895203697
 30
0.0
 40
7.600000000000364
100
AcDbArc
 50
180.0
 51
270.0
  0
ARC
  5
1D0
330
1F
100
AcDbEntity
  8
0
  6
Continuous
 62
     7
100
AcDbCircle
 10
5281.540563731989
 20
994.9859895203697
 30
0.0
 40
8.600000000000364
100
AcDbArc
 50
180.0
 51
270.0
  0
ARC
  5
1D1
330
1F
100
AcDbEntity
  8
0
  6
Continuous
 62
     7
100
AcDbCircle
 10
5418.824963731995
 20
994.7859895201358
 30
0.0
 40
11.0
100
AcDbArc
 50
270.0
 51
0.0
  0
ARC
  5
1D2
330
1F
100
AcDbEntity
  8
0
  6
Continuous
 62
     7
100
AcDbCircle
 10
5415.455945994328
 20
1029.91697178247
 30
0.0
 40
6.496040375624943
100
AcDbArc
 50
0.0
 51
90.0
  0
ARC
  5
1D3
330
1F
100
AcDbEntity
  8
0
  6
Continuous
 62
     7
100
AcDbCircle
 10
5285.009581469655
 20
1029.91697178247
 30
0.0
 40
6.496040375624034
100
AcDbArc
 50
90.0
 51
180.0
  0
ARC
  5
1D4
330
1F
100
AcDbEntity
  8
0
  6
Continuous
 62
     7
100
AcDbCircle
 10
5435.824963731995
 20
1015.984218393908
 30
0.0
 40
6.0
100
AcDbArc
 50
90.0
 51
180.0
  0
ARC
  5
1D5
330
1F
100
AcDbEntity
  8
0
  6
Continuous
 62
     2
100
AcDbCircle
 10
5435.824963731995
 20
1015.984218393908
 30
0.0
 40
7.0
100
AcDbArc
 50
90.0
 51
180.0
  0
ARC
  5
1D6
330
1F
100
AcDbEntity
  8
0
  6
Continuous
 62
     2
100
AcDbCircle
 10
5418.924963731995
 20
994.9859895203698
 30
0.0
 40
7.600000000000364
100
AcDbArc
 50
269.9999999999862
 51
0.00000000000171
  0
ARC
  5
1D7
330
1F
100
AcDbEntity
  8
0
  6
Continuous
 62
     7
100
AcDbCircle
 10
5418.924963731995
 20
994.9859895203698
 30
0.0
 40
8.600000000000364
100
AcDbArc
 50
269.9999999999879
 51
0.00000000000151
  0
ARC
  5
1D8
330
1F
100
AcDbEntity
  8
0
  6
Continuous
 62
     2
100
AcDbCircle
 10
5418.824963731995
 20
994.7859895201358
 30
0.0
 40
10.0
100
AcDbArc
 50
270.0
 51
0.0
  0
ARC
  5
1D9
330
1F
100
AcDbEntity
  8
0
  6
Continuous
 62
     7
100
AcDbCircle
 10
5415.455945994328
 20
997.8550682122326
 30
0.0
 40
6.496040375624261
100
AcDbArc
 50
270.0
 51
0.0
  0
ARC
  5
1DA
330
1F
100
AcDbEntity
  8
0
  6
Continuous
 62
     7
100
AcDbCircle
 10
5281.642334859731
 20
1032.984218393908
 30
0.0
 40
11.0
100
AcDbArc
 50
90.0
 51
180.0
  0
ARC
  5
1DB
330
1F
100
AcDbEntity
  8
0
  6
Continuous
 62
     7
100
AcDbCircle
 10
5472.699298947227
 20
1017.307192485285
 30
0.0
 40
81.99999999999964
100
AcDbArc
 50
8.80819954011431
 51
11.37212603991146
  0
ARC
  5
1DC
330
1F
100
AcDbEntity
  8
0
  6
Continuous
 62
     7
100
AcDbCircle
 10
5472.699298947227
 20
1010.464786554991
 30
0.0
 40
81.99999999999837
100
AcDbArc
 50
348.6274855857249
 51
351.1918493866024
  0
ARC
  5
1DD
330
1F
100
AcDbEntity
  8
0
  6
Continuous
 62
     7
100
AcDbCircle
 10
5550.140335275683
 20
994.8476260625167
 30
0.0
 40
2.999937914755678
100
AcDbArc
 50
272.000095174978
 51
348.5984575325369
  0
ARC
  5
1DE
330
1F
100
AcDbEntity
  8
0
  6
Continuous
 62
     7
100
AcDbCircle
 10
5550.140318284048
 20
1032.924408925997
 30
0.0
 40
2.999943510899215
100
AcDbArc
 50
11.40156957106158
 51
87.99989026891029
  0
ARC
  5
1DF
330
1F
100
AcDbEntity
  8
0
  6
Continuous
 62
     2
100
AcDbCircle
 10
5472.800786447569
 20
1017.30673000959
 30
0.0
 40
79.00320631902716
100
AcDbArc
 50
359.9851540147895
 51
8.80842533756383
  0
ARC
  5
1E0
330
1F
100
AcDbEntity
  8
0
  6
Continuous
 62
     7
100
AcDbCircle
 10
5472.699298947227
 20
1010.464786554991
 30
0.0
 40
81.99999999999854
100
AcDbArc
 50
351.1918493866024
 51
0.01481512722901
  0
ARC
  5
1E1
330
1F
100
AcDbEntity
  8
0
  6
Continuous
 62
     7
100
AcDbCircle
 10
5525.699298947227
 20
984.7859895201378
 30
0.0
 40
1.000000000000114
100
AcDbArc
 50
270.0
 51
0.0
  0
ARC
  5
1E2
330
1F
100
AcDbEntity
  8
0
  6
Continuous
 62
     7
100
AcDbCircle
 10
5525.699298947227
 20
1004.785989520138
 30
0.0
 40
1.0
100
AcDbArc
 50
0.0
 51
90.0
  0
ARC
  5
1E3
330
1F
100
AcDbEntity
  8
0
  6
Continuous
 62
     7
100
AcDbCircle
 10
5535.199298947227
 20
1040.38598952014
 30
0.0
 40
1.0
100
AcDbArc
 50
0.0
 51
90.0
  0
ARC
  5
1E4
330
1F
100
AcDbEntity
  8
0
  6
Continuous
 62
     7
100
AcDbCircle
 10
5525.699298947227
 20
1042.98421839391
 30
0.0
 40
1.0
100
AcDbArc
 50
0.0
 51
90.0
  0
ARC
  5
1E5
330
1F
100
AcDbEntity
  8
0
  6
Continuous
 62
     7
100
AcDbCircle
 10
5535.199298947227
 20
987.3859895203716
 30
0.0
 40
1.0
100
AcDbArc
 50
270.0
 51
0.0
  0
ARC
  5
1E6
330
1F
100
AcDbEntity
  8
0
  6
Continuous
 62
     7
100
AcDbCircle
 10
5472.699298947227
 20
1017.307192485286
 30
0.0
 40
81.99999999999838
100
AcDbArc
 50
359.985184872771
 51
8.80819954011361
  0
ARC
  5
1E7
330
1F
100
AcDbEntity
  8
0
  6
Continuous
 62
     2
100
AcDbCircle
 10
5300.656422142047
 20
1024.981377444013
 30
0.0
 40
0.1663461499999273
100
AcDbArc
 50
299.7524870760965
 51
60.24751292405896
  0
ARC
  5
1E8
330
1F
100
AcDbEntity
  8
0
  6
Continuous
 62
     2
100
AcDbCircle
 10
5292.172768492048
 20
1020.323685244014
 30
0.0
 40
0.3326923000015594
100
AcDbArc
 50
240.2480640652978
 51
299.7524870753971
  0
ARC
  5
1E9
330
1F
100
AcDbEntity
  8
0
  6
Continuous
 62
     2
100
AcDbCircle
 10
5294.834306892046
 20
1022.803052530276
 30
0.0
 40
0.3326922999995077
100
AcDbArc
 50
180.0
 51
299.9816393683953
  0
ARC
  5
1EA
330
1F
100
AcDbEntity
  8
0
  6
Continuous
 62
     2
100
AcDbCircle
 10
5296.165076092055
 20
1023.563670210422
 30
0.0
 40
0.3326923000000508
100
AcDbArc
 50
299.9816393696972
 51
119.9816393697756
  0
ARC
  5
1EB
330
1F
100
AcDbEntity
  8
0
  6
Continuous
 62
     2
100
AcDbCircle
 10
5293.503537692048
 20
1022.042378632525
 30
0.0
 40
0.3326923000004172
100
AcDbArc
 50
180.0
 51
0.0
  0
ARC
  5
1EC
330
1F
100
AcDbEntity
  8
0
  6
Continuous
 62
     2
100
AcDbCircle
 10
5296.165076092046
 20
1024.981377444013
 30
0.0
 40
0.3326922999990529
100
AcDbArc
 50
270.0
 51
90.0
  0
ARC
  5
1ED
330
1F
100
AcDbEntity
  8
0
  6
Continuous
 62
     2
100
AcDbCircle
 10
5293.503537692048
 20
1027.920376255501
 30
0.0
 40
0.3326922999995077
100
AcDbArc
 50
0.0
 51
150.0000000001024
  0
ARC
  5
1EE
330
1F
100
AcDbEntity
  8
0
  6
Continuous
 62
     2
100
AcDbCircle
 10
5292.172768492048
 20
1025.282724087952
 30
0.0
 40
0.16634615000156
100
AcDbArc
 50
209.9999999992791
 51
330.000000000251
  0
ARC
  5
1EF
330
1F
100
AcDbEntity
  8
0
  6
Continuous
 62
     2
100
AcDbCircle
 10
5296.165076092035
 20
1026.399028460009
 30
0.0
 40
0.3326923000002023
100
AcDbArc
 50
240.0183606333919
 51
60.01836063329403
  0
ARC
  5
1F0
330
1F
100
AcDbEntity
  8
0
  6
Continuous
 62
     2
100
AcDbCircle
 10
5294.834306892046
 20
1027.159702357751
 30
0.0
 40
0.3326923000003387
100
AcDbArc
 50
60.01836063123546
 51
180.0
  0
ARC
  5
1F1
330
1F
100
AcDbEntity
  8
0
  6
Continuous
 62
     2
100
AcDbCircle
 10
5290.841999292047
 20
1027.920376255501
 30
0.0
 40
0.332692300000205
100
AcDbArc
 50
29.99999999997588
 51
180.0
  0
ARC
  5
1F2
330
1F
100
AcDbEntity
  8
0
  6
Continuous
 62
     2
100
AcDbCircle
 10
5288.180460892047
 20
1026.39908467761
 30
0.0
 40
0.3326922999995077
100
AcDbArc
 50
0.0
 51
180.0
  0
ARC
  5
1F3
330
1F
100
AcDbEntity
  8
0
  6
Continuous
 62
     2
100
AcDbCircle
 10
5289.511230092047
 20
1027.166836139148
 30
0.0
 40
0.3326922999995077
100
AcDbArc
 50
0.0
 51
180.0
  0
ARC
  5
1F4
330
1F
100
AcDbEntity
  8
0
  6
Continuous
 62
     2
100
AcDbCircle
 10
5283.68929961979
 20
1024.981377444013
 30
0.0
 40
0.1665309277437376
100
AcDbArc
 50
119.7519359346296
 51
240.2480640650599
  0
ARC
  5
1F5
330
1F
100
AcDbEntity
  8
0
  6
Continuous
 62
     2
100
AcDbCircle
 10
5288.180460892047
 20
1023.563670210417
 30
0.0
 40
0.3326923000004172
100
AcDbArc
 50
180.0
 51
0.0
  0
ARC
  5
1F6
330
1F
100
AcDbEntity
  8
0
  6
Continuous
 62
     2
100
AcDbCircle
 10
5289.843922392047
 20
1022.996048597593
 30
0.0
 40
0.6653845999990153
100
AcDbArc
 50
179.9999999999119
 51
240.0183606309145
  0
ARC
  5
1F7
330
1F
100
AcDbEntity
  8
0
  6
Continuous
 62
     2
100
AcDbCircle
 10
5290.841999292047
 20
1023.563670210417
 30
0.0
 40
0.3326923000013267
100
AcDbArc
 50
180.0
 51
0.0
  0
ARC
  5
1F8
330
1F
100
AcDbEntity
  8
0
  6
Continuous
 62
     2
100
AcDbCircle
 10
5291.840076192061
 20
1021.471860616287
 30
0.0
 40
0.3326922999994978
100
AcDbArc
 50
240.0183606280778
 51
60.01836062887489
  0
ARC
  5
1F9
330
1F
100
AcDbEntity
  8
0
  6
Continuous
 62
     2
100
AcDbCircle
 10
5292.172768492048
 20
1029.639069644014
 30
0.0
 40
0.3326922999980492
100
AcDbArc
 50
60.24751292444743
 51
119.7519359348576
  0
LWPOLYLINE
  5
1FA
330
1F
100
AcDbEntity
  8
Skizziergeometrie_ISO_
  6
Continuous
 62
     7
100
AcDbPolyline
 90
        2
 70
     0
 43
0.5
 10
5631.216428396945
 20
753.9812300241423
 42
0.57756392459821
 10
5631.216428396945
 20
753.4037729667771
 42
0.57756392459821
  0
CIRCLE
  5
1FB
330
1F
100
AcDbEntity
  8
0
  6
Continuous
 62
     7
100
AcDbCircle
 10
5437.424963732178
 20
1033.385989520228
 30
0.0
 40
3.230998166344762
  0
CIRCLE
  5
1FC
330
1F
100
AcDbEntity
  8
0
  6
Continuous
 62
     7
100
AcDbCircle
 10
5437.424963732178
 20
1033.385989520228
 30
0.0
 40
3.257184087913629
  0
CIRCLE
  5
1FD
330
1F
100
AcDbEntity
  8
0
  6
Continuous
 62
     7
100
AcDbCircle
 10
5263.040563732178
 20
994.3859895199313
 30
0.0
 40
3.230998166343852
  0
CIRCLE
  5
1FE
330
1F
100
AcDbEntity
  8
0
  6
Continuous
 62
     7
100
AcDbCircle
 10
5263.040563732178
 20
994.3859895199313
 30
0.0
 40
3.257184087912719
  0
SPLINE
  5
1FF
330
1F
100
AcDbEntity
  8
0
  6
Continuous
 62
     2
100
AcDbSpline
210
0.0
220
0.0
230
1.0
 70
     8
 71
     3
 72
    11
 73
     7
 74
     5
 42
0.0000000001
 43
0.0000000001
 44
0.00000001
 40
0.0
 40
0.0
 40
0.0
 40
0.0
 40
1.700136055933077
 40
3.400272111866153
 40
5.100407417991351
 40
6.800542724116891
 40
6.800542724116891
 40
6.800542724116891
 40
6.800542724116891
 10
5551.803990714402
 20
1010.485716660426
 30
0.0
 10
5551.803991245057
 20
1011.05242867907
 30
0.0
 10
5551.803992306367
 20
1012.185852716358
 30
0.0
 10
5551.803995640274
 20
1013.885988522354
 30
0.0
 10
5551.80399200642
 20
1015.586124078414
 30
0.0
 10
5551.803990745147
 20
1016.71954761583
 30
0.0
 10
5551.803990114511
 20
1017.286259384538
 30
0.0
 11
5551.803990714402
 21
1010.485716660426
 31
0.0
 11
5551.803992596691
 21
1012.185852716358
 31
0.0
 11
5551.80399447898
 21
1013.88598877229
 31
0.0
 11
5551.803992296744
 21
1015.586124078414
 31
0.0
 11
5551.803990114511
 21
1017.286259384538
 31
0.0
  0
SPLINE
  5
200
330
1F
100
AcDbEntity
  8
0
  6
Continuous
 62
     2
100
AcDbSpline
210
0.0
220
0.0
230
1.0
 70
     8
 71
     3
 72
    19
 73
    15
 74
    13
 42
0.0000000001
 43
0.0000000001
 44
0.00000001
 40
0.0
 40
0.0
 40
0.0
 40
0.0
 40
0.0290834996564665
 40
0.0643174112188833
 40
0.1604749788017242
 40
0.2992912373078268
 40
0.4850681639063555
 40
0.7168330456830051
 40
0.9914859472566988
 40
1.30247027671006
 40
1.641296360504872
 40
1.998423816386446
 40
2.546415259448951
 40
3.082280921828425
 40
3.082280921828425
 40
3.082280921828425
 40
3.082280921828425
 10
5279.025930753443
 20
1029.404582123058
 30
0.0
 10
5279.029195068247
 20
1029.413793861097
 30
0.0
 10
5279.036414016454
 20
1029.434165382767
 30
0.0
 10
5279.07270221196
 20
1029.474831140377
 30
0.0
 10
5279.149318710323
 20
1029.523699525937
 30
0.0
 10
5279.27936983311
 20
1029.577200482402
 30
0.0
 10
5279.457477887617
 20
1029.62961082034
 30
0.0
 10
5279.682812609802
 20
1029.679758901848
 30
0.0
 10
5279.951425961915
 20
1029.725933542969
 30
0.0
 10
5280.256980717817
 20
1029.76632004754
 30
0.0
 10
5280.590928667727
 20
1029.800464508463
 30
0.0
 10
5281.00440302373
 20
1029.832024911009
 30
0.0
 10
5281.484254324209
 20
1029.855895945164
 30
0.0
 10
5281.845522971588
 20
1029.861069761687
 30
0.0
 10
5282.024136427229
 20
1029.863627728603
 30
0.0
 11
5279.025930753443
 21
1029.404582123058
 31
0.0
 11
5279.037221492763
 21
1029.431384532612
 31
0.0
 11
5279.059468041418
 21
1029.458707043421
 31
0.0
 11
5279.138228237678
 21
1029.51387142766
 31
0.0
 11
5279.265509966845
 21
1029.569272826975
 31
0.0
 11
5279.443202396968
 21
1029.623480453127
 31
0.0
 11
5279.669177866469
 21
1029.674959066249
 31
0.0
 11
5279.939731889248
 21
1029.722232072299
 31
0.0
 11
5280.247945978366
 21
1029.763648595988
 31
0.0
 11
5280.584981563042
 21
1029.798435514825
 31
0.0
 11
5280.941048172318
 21
1029.825941686914
 31
0.0
 11
5281.488379570574
 21
1029.852829642456
 31
0.0
 11
5282.024136427229
 21
1029.863627728603
 31
0.0
  0
SPLINE
  5
201
330
1F
100
AcDbEntity
  8
0
  6
Continuous
 62
     2
100
AcDbSpline
210
0.0
220
0.0
230
1.0
 70
     8
 71
     3
 72
    11
 73
     7
 74
     5
 42
0.0000000001
 43
0.0000000001
 44
0.00000001
 40
0.0
 40
0.0
 40
0.0
 40
0.0
 40
3.18846794313183
 40
6.074317096463166
 40
9.373514700013809
 40
12.11838021706557
 40
12.11838021706557
 40
12.11838021706557
 40
12.11838021706557
 10
5421.407058389786
 20
1017.28625938349
 30
0.0
 10
5421.407473744782
 20
1018.34908215318
 30
0.0
 10
5421.408265033262
 20
1020.373854751048
 30
0.0
 10
5421.414931773272
 20
1023.498353637993
 30
0.0
 10
5421.424807339372
 20
1026.474976090154
 30
0.0
 10
5421.434977804182
 20
1028.489638412258
 30
0.0
 10
5421.439596643793
 20
1029.40458205631
 30
0.0
 11
5421.407058389786
 21
1017.28625938349
 31
0.0
 11
5421.409276789209
 21
1020.474726554888
 31
0.0
 11
5421.415169201601
 21
1023.360569692562
 31
0.0
 11
5421.426459168752
 21
1026.659747978729
 31
0.0
 11
5421.439596643793
 21
1029.40458205631
 31
0.0
  0
SPLINE
  5
202
330
1F
100
AcDbEntity
  8
0
  6
Continuous
 62
     2
100
AcDbSpline
210
0.0
220
0.0
230
1.0
 70
     8
 71
     3
 72
    18
 73
    14
 74
    12
 42
0.0000000001
 43
0.0000000001
 44
0.00000001
 40
0.0
 40
0.0
 40
0.0
 40
0.0
 40
0.0787002557096027
 40
0.2493051756968365
 40
0.5207496138426132
 40
1.1475364077281
 40
1.917287163139218
 40
2.245982143110039
 40
2.708715728889888
 40
3.30289031505792
 40
4.025985653474818
 40
5.260269298217806
 40
6.542148889254909
 40
6.542148889254909
 40
6.542148889254909
 40
6.542148889254909
 10
5279.043930753443
 20
862.772098364194
 30
0.0
 10
5279.060118064868
 20
862.7933811443373
 30
0.0
 10
5279.111395922637
 20
862.8608003311638
 30
0.0
 10
5279.291789214203
 20
862.9004761474077
 30
0.0
 10
5279.629207426091
 20
862.9911726272633
 30
0.0
 10
5280.185461356463
 20
863.0696766563175
 30
0.0
 10
5280.754490883071
 20
863.1385117299922
 30
0.0
 10
5281.27271056529
 20
863.1888061190477
 30
0.0
 10
5281.732799385301
 20
863.2286013485954
 30
0.0
 10
5282.324568118685
 20
863.2723115403458
 30
0.0
 10
5283.173533196345
 20
863.3237617314046
 30
0.0
 10
5284.25231414004
 20
863.3721404069536
 30
0.0
 10
5285.090863276297
 20
863.3901312524104
 30
0.0
 10
5285.518068875904
 20
863.3992968332789
 30
0.0
 11
5279.043930753443
 21
862.772098364194
 31
0.0
 11
5279.09598892286
 21
862.8311210483567
 31
0.0
 11
5279.254834388649
 21
862.8933637726061
 31
0.0
 11
5279.51849056106
 21
862.9579199942254
 31
0.0
 11
5280.136754418607
 21
863.060932068474
 31
0.0
 11
5280.901103323193
 21
863.1519649060349
 31
0.0
 11
5281.228232422188
 21
863.1840108488151
 31
0.0
 11
5281.689236356086
 21
863.2239826431146
 31
0.0
 11
5282.281780592174
 21
863.2679686309539
 31
0.0
 11
5283.003530597747
 21
863.3120571543528
 31
0.0
 11
5284.23660339662
 21
863.3667159904171
 31
0.0
 11
5285.518068875904
 21
863.3992968332789
 31
0.0
  0
SPLINE
  5
203
330
1F
100
AcDbEntity
  8
0
  6
Continuous
 62
     2
100
AcDbSpline
210
0.0
220
0.0
230
1.0
 70
     8
 71
     3
 72
    15
 73
    11
 74
     9
 42
0.0000000001
 43
0.0000000001
 44
0.00000001
 40
0.0
 40
0.0
 40
0.0
 40
0.0
 40
0.1309114526656978
 40
0.3427455577912066
 40
0.6352258941872939
 40
1.000439587532926
 40
1.423758988087448
 40
1.885253687917396
 40
2.362969279027614
 40
2.836040030364735
 40
2.836040030364735
 40
2.836040030364735
 40
2.836040030364735
 10
5285.517293648611
 20
860.5632571893966
 30
0.0
 10
5285.51738260817
 20
860.6068942577172
 30
0.0
 10
5285.517615517461
 20
860.7211425608052
 30
0.0
 10
5285.517622649017
 20
860.9328846270939
 30
0.0
 10
5285.5176187345
 20
861.2227272958477
 30
0.0
 10
5285.517547197113
 20
861.5830651160541
 30
0.0
 10
5285.517506799484
 20
861.9997410413804
 30
0.0
 10
5285.517542760614
 20
862.4539176068834
 30
0.0
 10
5285.517695711515
 20
862.924677943066
 30
0.0
 10
5285.517944893549
 20
863.2416066296962
 30
0.0
 10
5285.518068875904
 20
863.3992968332789
 30
0.0
 11
5285.517293648611
 21
860.5632571893966
 31
0.0
 11
5285.517527110597
 21
860.694168433889
 31
0.0
 11
5285.517620344085
 21
860.9060025184973
 31
0.0
 11
5285.517611040097
 21
861.1984828547454
 31
0.0
 11
5285.517556769581
 21
861.5636965440588
 31
0.0
 11
5285.517519923668
 21
861.9870159430097
 31
0.0
 11
5285.517560906063
 21
862.44851064102
 31
0.0
 11
5285.51773312539
 21
862.9262262010872
 31
0.0
 11
5285.518068875904
 21
863.3992968332789
 31
0.0
  0
SPLINE
  5
204
330
1F
100
AcDbEntity
  8
0
  6
Continuous
 62
     2
100
AcDbSpline
210
0.0
220
0.0
230
1.0
 70
     8
 71
     3
 72
    11
 73
     7
 74
     5
 42
0.0000000001
 43
0.0000000001
 44
0.00000001
 40
0.0
 40
0.0
 40
0.0
 40
0.0
 40
0.4230257383516563
 40
0.725572709481692
 40
0.8465936492291669
 40
0.9676125019973919
 40
0.9676125019973919
 40
0.9676125019973919
 40
0.9676125019973919
 10
5282.04213642723
 20
859.9120872607982
 30
0.0
 10
5282.046876159079
 20
859.7711583623346
 30
0.0
 10
5282.055005735529
 20
859.529437461141
 30
0.0
 10
5282.064485535234
 20
859.2473988492238
 30
0.0
 10
5282.070587614748
 20
859.0659725174114
 30
0.0
 10
5282.073295892141
 20
858.9853380553272
 30
0.0
 10
5282.074650019162
 20
858.9450211719193
 30
0.0
 11
5282.04213642723
 21
859.9120872607982
 31
0.0
 11
5282.056353950956
 21
859.4893005091999
 31
0.0
 11
5282.066519784979
 21
859.1869243766124
 31
0.0
 11
5282.070586695182
 21
859.0659717904525
 31
0.0
 11
5282.074650019162
 21
858.9450211719193
 31
0.0
  0
SPLINE
  5
205
330
1F
100
AcDbEntity
  8
0
  6
Continuous
 62
     2
100
AcDbSpline
210
0.0
220
0.0
230
1.0
 70
     8
 71
     3
 72
    12
 73
     8
 74
     6
 42
0.0000000001
 43
0.0000000001
 44
0.00000001
 40
0.0
 40
0.0
 40
0.0
 40
0.0
 40
17.02063512226233
 40
34.04127024452465
 40
47.66185666118328
 40
74.92342085561725
 40
129.4669406056092
 40
129.4669406056092
 40
129.4669406056092
 40
129.4669406056092
 10
5285.517293648611
 20
860.5632571893966
 30
0.0
 10
5291.190838689365
 20
860.5632570065627
 30
0.0
 10
5302.537928770873
 20
860.5632566408951
 30
0.0
 10
5318.425214324599
 20
860.5632560769756
 30
0.0
 10
5337.726142902387
 20
860.5632556190841
 30
0.0
 10
5369.534699689413
 20
860.5632547227349
 30
0.0
 10
5396.803061004221
 20
860.5632547150028
 30
0.0
 10
5414.98423425422
 20
860.5632547098477
 30
0.0
 11
5285.517293648611
 21
860.5632571893966
 31
0.0
 11
5302.537928770873
 21
860.5632566316208
 31
0.0
 11
5319.558563893135
 21
860.5632560738449
 31
0.0
 11
5333.179150309794
 21
860.563255720216
 31
0.0
 11
5360.440714504228
 21
860.5632550634763
 31
0.0
 11
5414.98423425422
 21
860.5632547098477
 31
0.0
  0
SPLINE
  5
206
330
1F
100
AcDbEntity
  8
0
  6
Continuous
 62
     2
100
AcDbSpline
210
0.0
220
0.0
230
1.0
 70
     8
 71
     3
 72
    15
 73
    11
 74
     9
 42
0.0000000001
 43
0.0000000001
 44
0.00000001
 40
0.0
 40
0.0
 40
0.0
 40
0.0
 40
0.4730725014880062
 40
0.9507896894526601
 40
1.412285789199423
 40
1.835606361825037
 40
2.200820986885804
 40
2.493302025297113
 40
2.705136633080573
 40
2.836048434384548
 40
2.836048434384548
 40
2.836048434384548
 40
2.836048434384548
 10
5414.983458794966
 20
863.3993027576745
 30
0.0
 10
5414.983582787489
 20
863.2416119707158
 30
0.0
 10
5414.98383198991
 20
862.9246821684333
 30
0.0
 10
5414.983984972539
 20
862.4539202499537
 30
0.0
 10
5414.984020965734
 20
861.9997422948392
 30
0.0
 10
5414.983980599631
 20
861.583065201609
 30
0.0
 10
5414.983909091821
 20
861.2227264461285
 30
0.0
 10
5414.983905205052
 20
860.9328830652477
 30
0.0
 10
5414.983912358776
 20
860.7211404811828
 30
0.0
 10
5414.9841452873
 20
860.6068918943665
 30
0.0
 10
5414.98423425422
 20
860.5632547098477
 30
0.0
 11
5414.983458794966
 21
863.3993027576745
 31
0.0
 11
5414.983794576212
 21
862.9262303753533
 31
0.0
 11
5414.983966827727
 21
862.4485132184432
 31
0.0
 11
5414.984007842853
 21
861.987017120519
 31
0.0
 11
5414.983971029109
 21
861.5636965494941
 31
0.0
 11
5414.983916789133
 21
861.1984819284611
 31
0.0
 11
5414.983907513064
 21
860.9060008901969
 31
0.0
 11
5414.984000771223
 21
860.6941663029414
 31
0.0
 11
5414.98423425422
 21
860.5632547098477
 31
0.0
  0
SPLINE
  5
207
330
1F
100
AcDbEntity
  8
0
  6
Continuous
 62
     2
100
AcDbSpline
210
0.0
220
0.0
230
1.0
 70
     8
 71
     3
 72
    12
 73
     8
 74
     6
 42
0.0000000001
 43
0.0000000001
 44
0.00000001
 40
0.0
 40
0.0
 40
0.0
 40
0.0
 40
17.0202475086183
 40
34.04049501723568
 40
47.6608229474768
 40
74.92212865549438
 40
129.4653899190676
 40
129.4653899190676
 40
129.4653899190676
 40
129.4653899190676
 10
5285.518068875904
 20
863.3992968332789
 30
0.0
 10
5291.19148471211
 20
863.399299341354
 30
0.0
 10
5302.538316384521
 20
863.3993043575041
 30
0.0
 10
5318.42525736701
 20
863.3993166133941
 30
0.0
 10
5337.725884415968
 20
863.399308614344
 30
0.0
 10
5369.534182716578
 20
863.3993038766317
 30
0.0
 10
5396.802371707107
 20
863.3993032052911
 30
0.0
 10
5414.983458794966
 20
863.3993027576745
 30
0.0
 11
5285.518068875904
 21
863.3992968332789
 31
0.0
 11
5302.53831638452
 21
863.3993052918288
 31
0.0
 11
5319.558563893135
 21
863.3993137503787
 31
0.0
 11
5333.178891823376
 21
863.3993109004184
 31
0.0
 11
5360.440197531393
 21
863.3993056076349
 31
0.0
 11
5414.983458794966
 21
863.3993027576745
 31
0.0
  0
SPLINE
  5
208
330
1F
100
AcDbEntity
  8
0
  6
Continuous
 62
     2
100
AcDbSpline
210
0.0
220
0.0
230
1.0
 70
     8
 71
     3
 72
    15
 73
    11
 74
     9
 42
0.0000000001
 43
0.0000000001
 44
0.00000001
 40
0.0
 40
0.0
 40
0.0
 40
0.0
 40
0.531734344040776
 40
1.09419840899919
 40
1.679891500322131
 40
2.278624456591231
 40
2.878758754214297
 40
3.468320344530687
 40
4.036282736347371
 40
4.574100100269377
 40
4.574100100269377
 40
4.574100100269377
 40
4.574100100269377
 10
5279.043930753443
 20
862.772098364194
 30
0.0
 10
5279.059594820836
 20
862.5950727141435
 30
0.0
 10
5279.09182820544
 20
862.2307908376613
 30
0.0
 10
5279.270473677191
 20
861.6946810770013
 30
0.0
 10
5279.554552813175
 20
861.1828461933098
 30
0.0
 10
5279.944007764226
 20
860.7275706168981
 30
0.0
 10
5280.418220587308
 20
860.3593781804582
 30
0.0
 10
5280.945606486091
 20
860.0972826772754
 30
0.0
 10
5281.493593980047
 20
859.9401415650342
 30
0.0
 10
5281.862642529721
 20
859.9212671819421
 30
0.0
 10
5282.04213642723
 20
859.9120872607982
 30
0.0
 11
5279.043930753443
 21
862.772098364194
 31
0.0
 11
5279.110790081044
 21
862.2445841530629
 31
0.0
 11
5279.283509966846
 21
861.70929575844
 31
0.0
 11
5279.568539878358
 21
861.1976373306123
 31
0.0
 11
5279.957731889249
 21
860.7426530104633
 31
0.0
 11
5280.431587659322
 21
860.3743842440005
 31
0.0
 11
5280.959048172318
 21
860.1110056647534
 31
0.0
 11
5281.506404889651
 21
859.9594078332765
 31
0.0
 11
5282.04213642723
 21
859.9120872607982
 31
0.0
  0
SPLINE
  5
209
330
1F
100
AcDbEntity
  8
0
  6
Continuous
 62
     2
100
AcDbSpline
210
0.0
220
0.0
230
1.0
 70
     8
 71
     3
 72
    16
 73
    12
 74
    10
 42
0.0000000001
 43
0.0000000001
 44
0.00000001
 40
0.0
 40
0.0
 40
0.0
 40
0.0
 40
0.1559355507715104
 40
0.3478783257931268
 40
0.6832968515990361
 40
1.11951250606959
 40
1.650840745720471
 40
2.260870092293672
 40
2.54781692109215
 40
3.010525662789604
 40
3.615400625820559
 40
3.615400625820559
 40
3.615400625820559
 40
3.615400625820559
 10
5282.04213642723
 20
859.9120872607982
 30
0.0
 10
5282.066401786788
 20
859.9597211864418
 30
0.0
 10
5282.120535642835
 20
860.0659882321664
 30
0.0
 10
5282.340646619877
 20
860.1593216743204
 30
0.0
 10
5282.63805330415
 20
860.2665435747738
 30
0.0
 10
5283.064964283598
 20
860.3620439611477
 30
0.0
 10
5283.583073329305
 20
860.4473802177047
 30
0.0
 10
5284.056904954529
 20
860.4989415779748
 30
0.0
 10
5284.508769366871
 20
860.5335749898526
 30
0.0
 10
5284.959781605176
 20
860.5574105773094
 30
0.0
 10
5285.315659322356
 20
860.5611426562614
 30
0.0
 10
5285.517293648611
 20
860.5632571893966
 30
0.0
 11
5282.04213642723
 21
859.9120872607982
 31
0.0
 11
5282.126571826544
 21
860.0431847792227
 31
0.0
 11
5282.29348677604
 21
860.1379551781766
 31
0.0
 11
5282.609712325514
 21
860.2497898298433
 31
0.0
 11
5283.033953426164
 21
860.351296409554
 31
0.0
 11
5283.558048019176
 21
860.4386723549069
 31
0.0
 11
5284.164328845511
 21
860.5061954124432
 31
0.0
 11
5284.450428167012
 21
860.5282331254311
 31
0.0
 11
5284.912521945421
 21
860.5520809680899
 31
0.0
 11
5285.517293648611
 21
860.5632571893966
 31
0.0
  0
SPLINE
  5
20A
330
1F
100
AcDbEntity
  8
0
  6
Continuous
 62
     2
100
AcDbSpline
210
0.0
220
0.0
230
1.0
 70
     8
 71
     3
 72
    20
 73
    16
 74
    14
 42
0.0000000001
 43
0.0000000001
 44
0.00000001
 40
0.0
 40
0.0
 40
0.0
 40
0.0
 40
0.8149449503287347
 40
1.516268498462121
 40
2.088521924259088
 40
2.516195513980225
 40
3.644200699380472
 40
4.62485566635477
 40
5.192482020144037
 40
5.602614201834992
 40
5.873093393435615
 40
6.0215064015763
 40
6.292950397996261
 40
6.463557184380082
 40
6.542260264973939
 40
6.542260264973939
 40
6.542260264973939
 40
6.542260264973939
 10
5414.983458794966
 20
863.3993027576745
 30
0.0
 10
5415.255058393046
 20
863.3939955860665
 30
0.0
 10
5415.760390580941
 20
863.3841211802898
 30
0.0
 10
5416.456192011776
 20
863.3607625416357
 30
0.0
 10
5417.022772510904
 20
863.3367464690178
 30
0.0
 10
5417.731175243007
 20
863.3007461816328
 30
0.0
 10
5418.574927389537
 20
863.2465283032711
 30
0.0
 10
5419.463824919038
 20
863.1691800575678
 30
0.0
 10
5420.112462221756
 20
863.0959807004808
 30
0.0
 10
5420.524969212034
 20
863.039594326601
 30
0.0
 10
5420.797160603131
 20
862.9942132546577
 30
0.0
 10
5421.024336355086
 20
862.9516957028674
 30
0.0
 10
5421.209536730743
 20
862.9002634510556
 30
0.0
 10
5421.390149849575
 20
862.8608211222136
 30
0.0
 10
5421.441413531144
 20
862.7933849563667
 30
0.0
 10
5421.457596643793
 20
862.7720964527871
 30
0.0
 11
5414.983458794966
 21
863.3993027576745
 31
0.0
 11
5415.798205643729
 21
863.3813348836565
 31
0.0
 11
5416.499147061184
 21
863.3581864827765
 31
0.0
 11
5417.070880129082
 21
863.3337880728243
 31
0.0
 11
5417.498001929171
 21
863.3120701715891
 31
0.0
 11
5418.623627412252
 21
863.238837869102
 31
0.0
 11
5419.600428122075
 21
863.1519785717236
 31
0.0
 11
5420.164383284392
 21
863.0875250814229
 31
0.0
 11
5420.57059063742
 21
863.0309212581875
 31
0.0
 11
5420.837369697108
 21
862.9863350899179
 31
0.0
 11
5420.983039979396
 21
862.9579345645134
 31
0.0
 11
5421.246694686604
 21
862.8933742163147
 31
0.0
 11
5421.405538958817
 21
862.8311233308167
 31
0.0
 11
5421.457596643793
 21
862.7720964527871
 31
0.0
  0
SPLINE
  5
20B
330
1F
100
AcDbEntity
  8
0
  6
Continuous
 62
     2
100
AcDbSpline
210
0.0
220
0.0
230
1.0
 70
     8
 71
     3
 72
    15
 73
    11
 74
     9
 42
0.0000000001
 43
0.0000000001
 44
0.00000001
 40
0.0
 40
0.0
 40
0.0
 40
0.0
 40
0.537817553924219
 40
1.10578023798655
 40
1.695342123226079
 40
2.295476630378769
 40
2.894209665813952
 40
3.479902731254488
 40
4.042366738244606
 40
4.574101089820168
 40
4.574101089820168
 40
4.574101089820168
 40
4.574101089820168
 10
5418.45938793198
 20
859.9120872658629
 30
0.0
 10
5418.638881892907
 20
859.921267154806
 30
0.0
 10
5419.007930603541
 20
859.9401414732552
 30
0.0
 10
5419.55591842984
 20
860.0972823092504
 30
0.0
 10
5420.083304803817
 20
860.3593774388428
 30
0.0
 10
5420.557518189397
 20
860.7275694617406
 30
0.0
 10
5420.946973714713
 20
861.1828446694799
 30
0.0
 10
5421.231053331264
 20
861.6946792933963
 30
0.0
 10
5421.40969913227
 20
862.23078893924
 30
0.0
 10
5421.441932556299
 20
862.5950707998043
 30
0.0
 10
5421.457596643793
 20
862.7720964527871
 30
0.0
 11
5418.45938793198
 21
859.9120872658629
 31
0.0
 11
5418.995119671585
 21
859.9594077105901
 31
0.0
 11
5419.542476762448
 21
860.1110052883042
 31
0.0
 11
5420.069937777485
 21
860.3743835223006
 31
0.0
 11
5420.543794111338
 21
860.7426519047928
 31
0.0
 11
5420.932986668264
 21
861.1976358620427
 31
0.0
 11
5421.218017031166
 21
861.7092940087863
 31
0.0
 11
5421.390737212174
 21
862.2445822472447
 31
0.0
 11
5421.457596643793
 21
862.7720964527871
 31
0.0
  0
SPLINE
  5
20C
330
1F
100
AcDbEntity
  8
0
  6
Continuous
 62
     2
100
AcDbSpline
210
0.0
220
0.0
230
1.0
 70
     8
 71
     3
 72
    11
 73
     7
 74
     5
 42
0.0000000001
 43
0.0000000001
 44
0.00000001
 40
0.0
 40
0.0
 40
0.0
 40
0.0
 40
0.1210164252441985
 40
0.2420328504883602
 40
0.544572165857118
 40
0.9676149843935193
 40
0.9676149843935193
 40
0.9676149843935193
 40
0.9676149843935193
 10
5418.426883275131
 20
858.9450183928494
 30
0.0
 10
5418.428238692632
 20
858.9853344232565
 30
0.0
 10
5418.430949527635
 20
859.0659664840701
 30
0.0
 10
5418.437054169426
 20
859.2473878610186
 30
0.0
 10
5418.446522966375
 20
859.5294284803163
 30
0.0
 10
5418.454649717562
 20
859.7711526197616
 30
0.0
 10
5418.45938793198
 20
859.9120872658629
 30
0.0
 11
5418.426883275131
 21
858.9450183928494
 31
0.0
 11
5418.430950114594
 21
859.0659664643333
 31
0.0
 11
5418.435018421596
 21
859.1869144864627
 31
0.0
 11
5418.445177185958
 21
859.4892831965675
 31
0.0
 11
5418.45938793198
 21
859.9120872658629
 31
0.0
  0
SPLINE
  5
20D
330
1F
100
AcDbEntity
  8
0
  6
Continuous
 62
     2
100
AcDbSpline
210
0.0
220
0.0
230
1.0
 70
     8
 71
     3
 72
    16
 73
    12
 74
    10
 42
0.0000000001
 43
0.0000000001
 44
0.00000001
 40
0.0
 40
0.0
 40
0.0
 40
0.0
 40
0.6050158270444869
 40
1.067745767579579
 40
1.354528033516828
 40
2.063736221265955
 40
2.495870636045198
 40
2.932083466825554
 40
3.267501476550816
 40
3.459010687737244
 40
3.615363058426532
 40
3.615363058426532
 40
3.615363058426532
 40
3.615363058426532
 10
5414.98423425422
 20
860.5632547098477
 30
0.0
 10
5415.185915186372
 20
860.561138410865
 30
0.0
 10
5415.541846307646
 20
860.5574035180235
 30
0.0
 10
5415.9928609216
 20
860.5335705009531
 30
0.0
 10
5416.47762660124
 20
860.4963897654139
 30
0.0
 10
5416.951387966545
 20
860.4433143697469
 30
0.0
 10
5417.468987759574
 20
860.3547505116283
 30
0.0
 10
5417.863466397721
 20
860.2665448605983
 30
0.0
 10
5418.160753849149
 20
860.1593722473148
 30
0.0
 10
5418.380791104923
 20
860.0660441067519
 30
0.0
 10
5418.43501573804
 20
859.9598279460529
 30
0.0
 10
5418.45938793198
 20
859.9120872658629
 30
0.0
 11
5414.98423425422
 21
860.5632547098477
 31
0.0
 11
5415.58914674468
 21
860.5520730346832
 31
0.0
 11
5416.051261465865
 21
860.5282196841422
 31
0.0
 11
5416.337196561781
 21
860.5061926784548
 31
0.0
 11
5417.041701939275
 21
860.4246547936917
 31
0.0
 11
5417.467563925882
 21
860.3512945810429
 31
0.0
 11
5417.891802270809
 21
860.2497886185049
 31
0.0
 11
5418.208027285464
 21
860.1379540024195
 31
0.0
 11
5418.374595034292
 21
860.0434502299045
 31
0.0
 11
5418.45938793198
 21
859.9120872658629
 31
0.0
  0
SPLINE
  5
20E
330
1F
100
AcDbEntity
  8
0
  6
Continuous
 62
     2
100
AcDbSpline
210
0.0
220
0.0
230
1.0
 70
     8
 71
     3
 72
    15
 73
    11
 74
     9
 42
0.0000000001
 43
0.0000000001
 44
0.00000001
 40
0.0
 40
0.0
 40
0.0
 40
0.0
 40
0.981141184513336
 40
2.517390137885211
 40
3.537308371446109
 40
5.055280651711751
 40
6.329558748362663
 40
7.611836154569621
 40
8.563354477056981
 40
10.1895523795815
 40
10.1895523795815
 40
10.1895523795815
 40
10.1895523795815
 10
5421.439596502003
 20
998.3674580801822
 30
0.0
 10
5421.42596889003
 20
998.0401732530324
 30
0.0
 10
5421.391003467596
 20
997.2004331532881
 30
0.0
 10
5421.064354415104
 20
996.0507882309066
 30
0.0
 10
5420.460291366156
 20
994.8309761600494
 30
0.0
 10
5419.674674278473
 20
993.8153374228378
 30
0.0
 10
5418.627502867626
 20
992.936863072911
 30
0.0
 10
5417.593710178752
 20
992.376322312387
 30
0.0
 10
5416.371099485665
 20
991.9503187851224
 30
0.0
 10
5415.509201608111
 20
991.8885093373422
 30
0.0
 10
5414.965458077668
 20
991.849515753269
 30
0.0
 11
5421.439596502003
 21
998.3674580801822
 31
0.0
 11
5421.36871307464
 21
997.3888807640373
 31
0.0
 11
5420.965041112759
 21
995.9066156750849
 31
0.0
 11
5420.510439896653
 21
994.993614614042
 31
0.0
 11
5419.582430454086
 21
993.7923493152174
 31
0.0
 11
5418.605623149388
 21
992.9740387646971
 31
0.0
 11
5417.48000890858
 21
992.359849927807
 31
0.0
 11
5416.578606006433
 21
992.0551206610314
 31
0.0
 11
5414.965458077668
 21
991.849515753269
 31
0.0
  0
SPLINE
  5
20F
330
1F
100
AcDbEntity
  8
0
  6
Continuous
 62
     2
100
AcDbSpline
210
0.0
220
0.0
230
1.0
 70
     8
 71
     3
 72
    19
 73
    15
 74
    13
 42
0.0000000001
 43
0.0000000001
 44
0.00000001
 40
0.0
 40
0.0
 40
0.0
 40
0.0
 40
0.0290823187123654
 40
0.0643151409719097
 40
0.1604722798195281
 40
0.2992889776145538
 40
0.4850659861570403
 40
0.7168311105732524
 40
0.9914843312626009
 40
1.302469031311521
 40
1.641295505057919
 40
1.998423359290771
 40
2.546415393701126
 40
3.08228164378961
 40
3.08228164378961
 40
3.08228164378961
 40
3.08228164378961
 10
5421.439596502003
 20
998.3674580801822
 30
0.0
 10
5421.436332214285
 20
998.358246753202
 30
0.0
 10
5421.429113287663
 20
998.3378760324514
 30
0.0
 10
5421.392825194356
 20
998.2972114164196
 30
0.0
 10
5421.316208590411
 20
998.2483439500329
 30
0.0
 10
5421.186157218189
 20
998.1948435690092
 30
0.0
 10
5421.00804884658
 20
998.142433447492
 30
0.0
 10
5420.782713919533
 20
998.0922853175152
 30
0.0
 10
5420.514100298453
 20
998.0461104167625
 30
0.0
 10
5420.208545225396
 20
998.0057235645994
 30
0.0
 10
5419.874596917487
 20
997.9715787931142
 30
0.0
 10
5419.46112211223
 20
997.9400182248769
 30
0.0
 10
5418.981270263266
 20
997.9161473961906
 30
0.0
 10
5418.620001206536
 20
997.910974521871
 30
0.0
 10
5418.441387546916
 20
997.9084170207628
 30
0.0
 11
5421.439596502003
 21
998.3674580801822
 31
0.0
 11
5421.428305918759
 21
998.3406568863338
 31
0.0
 11
5421.40605974999
 21
998.3133354709336
 31
0.0
 11
5421.327299422417
 21
998.2581720215132
 31
0.0
 11
5421.200017018972
 21
998.202771070619
 31
0.0
 11
5421.022324405963
 21
998.1485637631307
 31
0.0
 11
5420.796348691286
 21
998.0970851338598
 31
0.0
 11
5420.525794385727
 21
998.0498118921843
 31
0.0
 11
5420.217579967351
 21
998.0083950360813
 31
0.0
 11
5419.880544021257
 21
997.973607820722
 31
0.0
 11
5419.524477022937
 21
997.946101512783
 31
0.0
 11
5418.977145015682
 21
997.9192139020438
 31
0.0
 11
5418.441387546916
 21
997.9084170207628
 31
0.0
  0
SPLINE
  5
210
330
1F
100
AcDbEntity
  8
0
  6
Continuous
 62
     2
100
AcDbSpline
210
0.0
220
0.0
230
1.0
 70
     8
 71
     3
 72
    11
 73
     7
 74
     5
 42
0.0000000001
 43
0.0000000001
 44
0.00000001
 40
0.0
 40
0.0
 40
0.0
 40
0.0
 40
3.244780340844186
 40
6.074216691839093
 40
9.337467705043334
 40
12.11831611951839
 40
12.11831611951839
 40
12.11831611951839
 40
12.11831611951839
 10
5421.407058678459
 20
1010.485716659134
 30
0.0
 10
5421.407488094846
 20
1009.404123082858
 30
0.0
 10
5421.408291960721
 20
1007.379383943477
 30
0.0
 10
5421.414970142851
 20
1004.266900812059
 30
0.0
 10
5421.424759619341
 20
1001.309070374028
 30
0.0
 10
5421.434921219795
 20
999.2943958966603
 30
0.0
 10
5421.439596502003
 20
998.3674580801822
 30
0.0
 11
5421.407058678459
 21
1010.485716659134
 31
0.0
 11
5421.40935721771
 21
1007.24093713241
 31
0.0
 11
5421.41516972912
 21
1004.411506751743
 31
0.0
 11
5421.426310204479
 21
1001.148274754936
 31
0.0
 11
5421.439596502003
 21
998.3674580801822
 31
0.0
  0
SPLINE
  5
211
330
1F
100
AcDbEntity
  8
0
  6
Continuous
 62
     2
100
AcDbSpline
210
0.0
220
0.0
230
1.0
 70
     8
 71
     3
 72
    11
 73
     7
 74
     5
 42
0.0000000001
 43
0.0000000001
 44
0.00000001
 40
0.0
 40
0.0
 40
0.0
 40
0.0
 40
1.700135305938602
 40
3.400270611876977
 40
5.100406668116428
 40
6.800542724355992
 40
6.800542724355992
 40
6.800542724355992
 40
6.800542724355992
 10
5421.407058389786
 20
1017.28625938349
 30
0.0
 10
5421.407058389449
 20
1016.719547614844
 30
0.0
 10
5421.407058388777
 20
1015.586124077552
 30
0.0
 10
5421.407058314584
 20
1013.885988521513
 30
0.0
 10
5421.407058533112
 20
1012.185852715373
 30
0.0
 10
5421.407058630009
 20
1011.05242867788
 30
0.0
 10
5421.407058678459
 20
1010.485716659134
 30
0.0
 11
5421.407058389786
 21
1017.28625938349
 31
0.0
 11
5421.407058376579
 21
1015.586124077551
 31
0.0
 11
5421.407058363371
 21
1013.885988771613
 31
0.0
 11
5421.407058520916
 21
1012.185852715374
 31
0.0
 11
5421.407058678459
 21
1010.485716659134
 31
0.0
  0
SPLINE
  5
212
330
1F
100
AcDbEntity
  8
0
  6
Continuous
 62
     2
100
AcDbSpline
210
0.0
220
0.0
230
1.0
 70
     8
 71
     3
 72
    11
 73
     7
 74
     5
 42
0.0000000001
 43
0.0000000001
 44
0.00000001
 40
0.0
 40
0.0
 40
0.0
 40
0.0
 40
1.700000374235578
 40
3.400000748470473
 40
5.100000374197557
 40
6.799999999924413
 40
6.799999999924413
 40
6.799999999924413
 40
6.799999999924413
 10
5418.408883391499
 20
1017.285989520082
 30
0.0
 10
5418.408883708845
 20
1016.719322728671
 30
0.0
 10
5418.408884343536
 20
1015.585989145848
 30
0.0
 10
5418.408889132776
 20
1013.885989021112
 30
0.0
 10
5418.408878573212
 20
1012.185989145903
 30
0.0
 10
5418.40887409164
 20
1011.052656062095
 30
0.0
 10
5418.408871850852
 20
1010.485989520191
 30
0.0
 11
5418.408883391499
 21
1017.285989520082
 31
0.0
 11
5418.40888498307
 21
1015.585989145847
 31
0.0
 11
5418.408886574641
 21
1013.885988771613
 31
0.0
 11
5418.408879212747
 21
1012.185989145902
 31
0.0
 11
5418.408871850852
 21
1010.485989520191
 31
0.0
  0
SPLINE
  5
213
330
1F
100
AcDbEntity
  8
0
  6
Continuous
 62
     2
100
AcDbSpline
210
0.0
220
0.0
230
1.0
 70
     8
 71
     3
 72
    11
 73
     7
 74
     5
 42
0.0000000001
 43
0.0000000001
 44
0.00000001
 40
0.0
 40
0.0
 40
0.0
 40
0.0
 40
2.642032892824229
 40
6.304368835756572
 40
9.031910166081893
 40
12.57762785323087
 40
12.57762785323087
 40
12.57762785323087
 40
12.57762785323087
 10
5418.408871850852
 20
1010.485989520191
 30
0.0
 10
5418.409136608449
 20
1009.605311835823
 30
0.0
 10
5418.409768368006
 20
1007.50385542975
 30
0.0
 10
5418.415572636346
 20
1004.493222836123
 30
0.0
 10
5418.425717219365
 20
1001.18137244324
 30
0.0
 10
5418.435728855667
 20
999.090309623203
 30
0.0
 10
5418.441387546916
 20
997.9084170207628
 30
0.0
 11
5418.408871850852
 21
1010.485989520191
 31
0.0
 11
5418.410266714648
 21
1007.843956995577
 31
0.0
 11
5418.416967642993
 21
1004.18162718295
 31
0.0
 11
5418.425563595594
 21
1001.454099397898
 31
0.0
 11
5418.441387546916
 21
997.9084170207628
 31
0.0
  0
SPLINE
  5
214
330
1F
100
AcDbEntity
  8
0
  6
Continuous
 62
     2
100
AcDbSpline
210
0.0
220
0.0
230
1.0
 70
     8
 71
     3
 72
    15
 73
    11
 74
     9
 42
0.0000000001
 43
0.0000000001
 44
0.00000001
 40
0.0
 40
0.0
 40
0.0
 40
0.0
 40
0.8376100807701694
 40
1.408346308192044
 40
2.099411085558498
 40
2.812252596794059
 40
3.391077687420443
 40
4.205904991277639
 40
4.784587430504991
 40
5.595966197065287
 40
5.595966197065287
 40
5.595966197065287
 40
5.595966197065287
 10
5418.441387546916
 20
997.9084170207628
 30
0.0
 10
5418.425515755589
 20
997.6284554668518
 30
0.0
 10
5418.398829139423
 20
997.1577318808563
 30
0.0
 10
5418.190680652051
 20
996.4849565073105
 30
0.0
 10
5417.898807701522
 20
995.8915241212432
 30
0.0
 10
5417.494148169899
 20
995.3629637256522
 30
0.0
 10
5416.972035252444
 20
994.8889389531456
 30
0.0
 10
5416.400472917291
 20
994.5525408560469
 30
0.0
 10
5415.702151627856
 20
994.305579310349
 30
0.0
 10
5415.237468743489
 20
994.2733819822323
 30
0.0
 10
5414.966233330261
 20
994.2545884008665
 30
0.0
 11
5418.441387546916
 21
997.9084170207628
 31
0.0
 11
5418.353820617138
 21
997.0753968047915
 31
0.0
 11
5418.1900478206
 21
996.5286625801394
 31
0.0
 11
5417.882881127884
 21
995.9096156114833
 31
0.0
 11
5417.449578599207
 21
995.3435838643323
 31
0.0
 11
5417.020450123337
 21
994.955141800781
 31
0.0
 11
5416.319211892664
 21
994.5401617061333
 31
0.0
 11
5415.771616253879
 21
994.3530457478232
 31
0.0
 11
5414.966233330261
 21
994.2545884008665
 31
0.0
  0
SPLINE
  5
215
330
1F
100
AcDbEntity
  8
0
  6
Continuous
 62
     2
100
AcDbSpline
210
0.0
220
0.0
230
1.0
 70
     8
 71
     3
 72
    11
 73
     7
 74
     5
 42
0.0000000001
 43
0.0000000001
 44
0.00000001
 40
0.0
 40
0.0
 40
0.0
 40
0.0
 40
2.851187178571558
 40
6.304468201308633
 40
8.574623100576098
 40
12.57769344798523
 40
12.57769344798523
 40
12.57769344798523
 40
12.57769344798523
 10
5418.408883391499
 20
1017.285989520082
 30
0.0
 10
5418.409194657512
 20
1018.236385312686
 30
0.0
 10
5418.409882920525
 20
1020.337874859974
 30
0.0
 10
5418.415516390713
 20
1023.196078297779
 30
0.0
 10
5418.425161791646
 20
1026.438233392939
 30
0.0
 10
5418.435067134703
 20
1028.529285585299
 30
0.0
 10
5418.44138793198
 20
1029.863627761287
 30
0.0
 11
5418.408883391499
 21
1017.285989520082
 31
0.0
 11
5418.410523577018
 21
1020.137176226884
 31
0.0
 11
5418.416990999331
 21
1023.590451193411
 31
0.0
 11
5418.423925828418
 21
1025.860595500457
 31
0.0
 11
5418.44138793198
 21
1029.863627761287
 31
0.0
  0
SPLINE
  5
216
330
1F
100
AcDbEntity
  8
0
  6
Continuous
 62
     2
100
AcDbSpline
210
0.0
220
0.0
230
1.0
 70
     8
 71
     3
 72
    11
 73
     7
 74
     5
 42
0.0000000001
 43
0.0000000001
 44
0.00000001
 40
0.0
 40
0.0
 40
0.0
 40
0.0
 40
2.762774938607264
 40
6.043985155528813
 40
8.906337533266635
 40
12.11838028173267
 40
12.11838028173267
 40
12.11838028173267
 40
12.11838028173267
 10
5279.025930753443
 20
1029.404582123058
 30
0.0
 10
5279.030577699486
 20
1028.483668734963
 30
0.0
 10
5279.040743591939
 20
1026.469032374471
 30
0.0
 10
5279.050581438735
 20
1023.500268102669
 30
0.0
 10
5279.057251108679
 20
1020.381739037492
 30
0.0
 10
5279.058047695132
 20
1018.356940425694
 30
0.0
 10
5279.058468917274
 20
1017.286259384536
 30
0.0
 11
5279.025930753443
 21
1029.404582123058
 31
0.0
 11
5279.039142401003
 21
1026.641838773819
 31
0.0
 11
5279.050357696036
 21
1023.360647724095
 31
0.0
 11
5279.056217131625
 21
1020.498301343701
 31
0.0
 11
5279.058468917274
 21
1017.286259384536
 31
0.0
  0
SPLINE
  5
217
330
1F
100
AcDbEntity
  8
0
  6
Continuous
 62
     2
100
AcDbSpline
210
0.0
220
0.0
230
1.0
 70
     8
 71
     3
 72
    11
 73
     7
 74
     5
 42
0.0000000001
 43
0.0000000001
 44
0.00000001
 40
0.0
 40
0.0
 40
0.0
 40
0.0
 40
3.768257223580252
 40
6.273145480088736
 40
9.847776602031667
 40
12.57769350690017
 40
12.57769350690017
 40
12.57769350690017
 40
12.57769350690017
 10
5282.024136427229
 20
1029.863627728603
 30
0.0
 10
5282.030119025999
 20
1028.607555930914
 30
0.0
 10
5282.040078460882
 20
1026.516530649777
 30
0.0
 10
5282.049994206114
 20
1023.233952612338
 30
0.0
 10
5282.055708077905
 20
1020.297478022907
 30
0.0
 10
5282.056365395626
 20
1018.195961879801
 30
0.0
 10
5282.056650019162
 20
1017.285989520082
 30
0.0
 11
5282.024136427229
 21
1029.863627728603
 31
0.0
 11
5282.04076969914
 21
1026.09540721524
 31
0.0
 11
5282.048547297096
 21
1023.590531033357
 31
0.0
 11
5282.055152689502
 21
1020.015906014316
 31
0.0
 11
5282.056650019162
 21
1017.285989520082
 31
0.0
  0
SPLINE
  5
218
330
1F
100
AcDbEntity
  8
0
  6
Continuous
 62
     2
100
AcDbSpline
210
0.0
220
0.0
230
1.0
 70
     8
 71
     3
 72
    11
 73
     7
 74
     5
 42
0.0000000001
 43
0.0000000001
 44
0.00000001
 40
0.0
 40
0.0
 40
0.0
 40
0.0
 40
2.780126928617322
 40
6.044139588655417
 40
8.923045705250582
 40
12.11831569908952
 40
12.11831569908952
 40
12.11831569908952
 40
12.11831569908952
 10
5279.025931386344
 20
998.3674585045447
 30
0.0
 10
5279.030605512004
 20
999.2941558285568
 30
0.0
 10
5279.040767302695
 20
1001.308843692304
 30
0.0
 10
5279.05061261105
 20
1004.283177348975
 30
0.0
 10
5279.05725903124
 20
1007.395900936303
 30
0.0
 10
5279.058051871289
 20
1009.420626539751
 30
0.0
 10
5279.058468938223
 20
1010.485716660424
 30
0.0
 11
5279.025931386344
 21
998.3674585045447
 31
0.0
 11
5279.039214750487
 21
1001.147553699221
 31
0.0
 11
5279.050358342584
 21
1004.41154733666
 31
0.0
 11
5279.056240796804
 21
1007.290447443454
 31
0.0
 11
5279.058468938223
 21
1010.485716660424
 31
0.0
  0
SPLINE
  5
219
330
1F
100
AcDbEntity
  8
0
  6
Continuous
 62
     2
100
AcDbSpline
210
0.0
220
0.0
230
1.0
 70
     8
 71
     3
 72
    11
 73
     7
 74
     5
 42
0.0000000001
 43
0.0000000001
 44
0.00000001
 40
0.0
 40
0.0
 40
0.0
 40
0.0
 40
3.717609724041651
 40
6.273297985447694
 40
9.836278687055817
 40
12.57762433014886
 40
12.57762433014886
 40
12.57762433014886
 40
12.57762433014886
 10
5282.024132670528
 20
997.9084205083108
 30
0.0
 10
5282.03004191597
 20
999.14760995182
 30
0.0
 10
5282.040013499941
 20
1001.238685997076
 30
0.0
 10
5282.049948841685
 20
1004.517431347514
 30
0.0
 10
5282.055701225059
 20
1007.470765329486
 30
0.0
 10
5282.05636191211
 20
1009.572207580132
 30
0.0
 10
5282.056649202373
 20
1010.485989520191
 30
0.0
 11
5282.024132670528
 21
997.9084205083108
 31
0.0
 11
5282.04058381261
 21
1001.625993832431
 31
0.0
 11
5282.048546238319
 21
1004.18166969006
 31
0.0
 11
5282.055138324537
 21
1007.744644293454
 31
0.0
 11
5282.056649202373
 21
1010.485989520191
 31
0.0
  0
SPLINE
  5
21A
330
1F
100
AcDbEntity
  8
0
  6
Continuous
 62
     2
100
AcDbSpline
210
0.0
220
0.0
230
1.0
 70
     8
 71
     3
 72
    11
 73
     7
 74
     5
 42
0.0000000001
 43
0.0000000001
 44
0.00000001
 40
0.0
 40
0.0
 40
0.0
 40
0.0
 40
1.699999626052394
 40
3.399999252105129
 40
5.099999626007081
 40
6.799999999909147
 40
6.799999999909147
 40
6.799999999909147
 40
6.799999999909147
 10
5282.056649202373
 20
1010.485989520191
 30
0.0
 10
5282.05664815112
 20
1011.052656062207
 30
0.0
 10
5282.056646048618
 20
1012.185989146239
 30
0.0
 10
5282.056639536924
 20
1013.885989021571
 30
0.0
 10
5282.056646457017
 20
1015.585989146185
 30
0.0
 10
5282.05664883178
 20
1016.719322728783
 30
0.0
 10
5282.056650019162
 20
1017.285989520082
 30
0.0
 11
5282.056649202373
 21
1010.485989520191
 31
0.0
 11
5282.056645488962
 21
1012.185989146239
 31
0.0
 11
5282.056641775555
 21
1013.885988772288
 31
0.0
 11
5282.056645897359
 21
1015.585989146185
 31
0.0
 11
5282.056650019162
 21
1017.285989520082
 31
0.0
  0
SPLINE
  5
21B
330
1F
100
AcDbEntity
  8
0
  6
Continuous
 62
     2
100
AcDbSpline
210
0.0
220
0.0
230
1.0
 70
     8
 71
     3
 72
    11
 73
     7
 74
     5
 42
0.0000000001
 43
0.0000000001
 44
0.00000001
 40
0.0
 40
0.0
 40
0.0
 40
0.0
 40
1.700136055932036
 40
3.400272111863958
 40
5.100407417987644
 40
6.800542724112012
 40
6.800542724112012
 40
6.800542724112012
 40
6.800542724112012
 10
5279.058468938223
 20
1010.485716660424
 30
0.0
 10
5279.058468956753
 20
1011.052428679068
 30
0.0
 10
5279.058468993816
 20
1012.185852716356
 30
0.0
 10
5279.058469110238
 20
1013.885988522352
 30
0.0
 10
5279.05846898334
 20
1015.586124078412
 30
0.0
 10
5279.058468939295
 20
1016.719547615828
 30
0.0
 10
5279.058468917274
 20
1017.286259384536
 30
0.0
 11
5279.058468938223
 21
1010.485716660424
 31
0.0
 11
5279.058469003954
 21
1012.185852716356
 31
0.0
 11
5279.058469069684
 21
1013.885988772288
 31
0.0
 11
5279.058468993478
 21
1015.586124078412
 31
0.0
 11
5279.058468917274
 21
1017.286259384536
 31
0.0
  0
SPLINE
  5
21C
330
1F
100
AcDbEntity
  8
0
  6
Continuous
 62
     2
100
AcDbSpline
210
0.0
220
0.0
230
1.0
 70
     8
 71
     3
 72
    19
 73
    15
 74
    13
 42
0.0000000001
 43
0.0000000001
 44
0.00000001
 40
0.0
 40
0.0
 40
0.0
 40
0.0
 40
0.5358645673312041
 40
1.083855023671217
 40
1.440981898655121
 40
1.779807468847158
 40
2.090791346513584
 40
2.365443843454655
 40
2.59720835376455
 40
2.782984883245147
 40
2.921800689312442
 40
3.017957581984714
 40
3.053190987866258
 40
3.082273874148287
 40
3.082273874148287
 40
3.082273874148287
 40
3.082273874148287
 10
5282.024132670528
 20
997.9084205083108
 30
0.0
 10
5281.845519576753
 20
997.9109782685971
 30
0.0
 10
5281.48425161693
 20
997.9161516678193
 30
0.0
 10
5281.004401182863
 20
997.9400222782342
 30
0.0
 10
5280.590927493221
 20
997.9715822894077
 30
0.0
 10
5280.256980024629
 20
998.0057263846454
 30
0.0
 10
5279.951425673914
 20
998.0461124600422
 30
0.0
 10
5279.682812649455
 20
998.0922865741766
 30
0.0
 10
5279.457478188026
 20
998.1424340129331
 30
0.0
 10
5279.279370340183
 20
998.1948435716507
 30
0.0
 10
5279.149319392072
 20
998.2483435964034
 30
0.0
 10
5279.072702958363
 20
998.2972109791073
 30
0.0
 10
5279.03641468724
 20
998.3378758708267
 30
0.0
 10
5279.029195704649
 20
998.3582469848435
 30
0.0
 10
5279.025931386344
 20
998.3674585045447
 30
0.0
 11
5282.024132670528
 21
997.9084205083108
 31
0.0
 11
5281.488376897114
 21
997.9192179975767
 31
0.0
 11
5280.941046461415
 21
997.9461054369682
 31
0.0
 11
5280.584980408312
 21
997.973611266595
 31
0.0
 11
5280.247945300924
 21
998.0083978071505
 31
0.0
 11
5279.93973160769
 21
998.0498138846062
 31
0.0
 11
5279.669177900141
 21
998.0970863438978
 31
0.0
 11
5279.443202659949
 21
998.1485642912071
 31
0.0
 11
5279.265510398986
 21
998.202771110888
 31
0.0
 11
5279.138228753878
 21
998.2581715696645
 31
0.0
 11
5279.059468618265
 21
998.3133348640418
 31
0.0
 11
5279.037222105774
 21
998.3406567521906
 31
0.0
 11
5279.025931386344
 21
998.3674585045447
 31
0.0
  0
SPLINE
  5
21D
330
1F
100
AcDbEntity
  8
0
  6
Continuous
 62
     2
100
AcDbSpline
210
0.0
220
0.0
230
1.0
 70
     8
 71
     3
 72
    15
 73
    11
 74
     9
 42
0.0000000001
 43
0.0000000001
 44
0.00000001
 40
0.0
 40
0.0
 40
0.0
 40
0.0
 40
1.173857773389837
 40
2.578433211862706
 40
4.083834966059139
 40
5.134591682850928
 40
6.652603306205896
 40
7.672479828917758
 40
9.20894754899899
 40
10.1898768000882
 40
10.1898768000882
 40
10.1898768000882
 40
10.1898768000882
 10
5414.965458794965
 20
1035.922524958731
 30
0.0
 10
5415.357192750635
 20
1035.901149694063
 30
0.0
 10
5416.217654609312
 20
1035.854197930757
 30
0.0
 10
5417.532364166938
 20
1035.44662198546
 30
0.0
 10
5418.691165613093
 20
1034.791412027012
 30
0.0
 10
5419.720437063245
 20
1033.897392179333
 30
0.0
 10
5420.460356593776
 20
1032.94100991896
 30
0.0
 10
5421.064369022499
 20
1031.721198009155
 30
0.0
 10
5421.391020908453
 20
1030.57153485342
 30
0.0
 10
5421.425976027343
 20
1029.731795146399
 30
0.0
 10
5421.439596643793
 20
1029.40458205631
 30
0.0
 11
5414.965458794965
 21
1035.922524958731
 31
0.0
 11
5416.134362703087
 21
1035.814795084858
 31
0.0
 11
5417.480001929171
 21
1035.412194494213
 31
0.0
 11
5418.788773154379
 21
1034.668317944237
 31
0.0
 11
5419.582428122075
 21
1033.979695064763
 31
0.0
 11
5420.510458766413
 21
1032.778396429198
 31
0.0
 11
5420.965039979395
 21
1031.865432003614
 31
0.0
 11
5421.36874501063
 21
1030.382949186645
 31
0.0
 11
5421.439596643793
 21
1029.40458205631
 31
0.0
  0
SPLINE
  5
21E
330
1F
100
AcDbEntity
  8
0
  6
Continuous
 62
     2
100
AcDbSpline
210
0.0
220
0.0
230
1.0
 70
     8
 71
     3
 72
    15
 73
    11
 74
     9
 42
0.0000000001
 43
0.0000000001
 44
0.00000001
 40
0.0
 40
0.0
 40
0.0
 40
0.0
 40
0.9809044892448896
 40
2.517403486075633
 40
3.979687329456467
 40
5.0554702267334
 40
6.567920098722643
 40
7.611612871691331
 40
8.563428663083492
 40
10.18931669075577
 40
10.18931669075577
 40
10.18931669075577
 40
10.18931669075577
 10
5279.025930753443
 20
1029.404582123058
 30
0.0
 10
5279.039602265075
 20
1029.731818762553
 30
0.0
 10
5279.074688974759
 20
1030.571642278571
 30
0.0
 10
5279.440802212276
 20
1031.864231272321
 30
0.0
 10
5280.089231338177
 20
1033.069126080941
 30
0.0
 10
5280.95483398668
 20
1034.112707252663
 30
0.0
 10
5281.906314559856
 20
1034.881884618363
 30
0.0
 10
5282.947317914136
 20
1035.421746966608
 30
0.0
 10
5284.094613451675
 20
1035.821900869894
 30
0.0
 10
5284.956459212788
 20
1035.88360490165
 30
0.0
 10
5285.500068875903
 20
1035.922524751847
 30
0.0
 11
5279.025930753443
 21
1029.404582123058
 31
0.0
 11
5279.096779669256
 21
1030.382924623489
 31
0.0
 11
5279.50049056106
 21
1031.865438260222
 31
0.0
 11
5280.196706085912
 21
1033.151345714734
 31
0.0
 11
5280.883103323193
 21
1033.979698100332
 31
0.0
 11
5282.060240969407
 21
1034.929356763823
 31
0.0
 11
5282.985530597747
 21
1035.412195979333
 31
0.0
 11
5283.887223643917
 21
1035.716995833718
 31
0.0
 11
5285.500068875903
 21
1035.922524751847
 31
0.0
  0
SPLINE
  5
21F
330
1F
100
AcDbEntity
  8
0
  6
Continuous
 62
     2
100
AcDbSpline
210
0.0
220
0.0
230
1.0
 70
     8
 71
     3
 72
    15
 73
    11
 74
     9
 42
0.0000000001
 43
0.0000000001
 44
0.00000001
 40
0.0
 40
0.0
 40
0.0
 40
0.0
 40
0.8116707418239509
 40
1.390043128624771
 40
2.204861638399446
 40
2.783695301728236
 40
3.496542530973468
 40
4.187589792442197
 40
5.005801309554001
 40
5.595973891377872
 40
5.595973891377872
 40
5.595973891377872
 40
5.595973891377872
 10
5414.966234254219
 20
1033.517438045754
 30
0.0
 10
5415.237567884844
 20
1033.498631137195
 30
0.0
 10
5415.702245776236
 20
1033.466422985952
 30
0.0
 10
5416.40054507334
 20
1033.219439226243
 30
0.0
 10
5416.972013878263
 20
1032.883088281463
 30
0.0
 10
5417.49414520453
 20
1032.409086634249
 30
0.0
 10
5417.898735120572
 20
1031.880427477762
 30
0.0
 10
5418.227459279819
 20
1031.213022452818
 30
0.0
 10
5418.414488642096
 20
1030.530466601813
 30
0.0
 10
5418.43344458791
 20
1030.060544868499
 30
0.0
 10
5418.44138793198
 20
1029.863627761287
 30
0.0
 11
5414.966234254219
 21
1033.517438045754
 31
0.0
 11
5415.771902474316
 21
1033.418908292595
 31
0.0
 11
5416.31919656178
 21
1033.231868725547
 31
0.0
 11
5417.020428440423
 21
1032.816895164646
 31
0.0
 11
5417.449563925881
 21
1032.428448070536
 31
0.0
 11
5417.882869171434
 21
1031.862411202109
 31
0.0
 11
5418.190027285463
 21
1031.243379530407
 31
0.0
 11
5418.398854947042
 21
1030.452265698842
 31
0.0
 11
5418.44138793198
 21
1029.863627761287
 31
0.0
  0
SPLINE
  5
220
330
1F
100
AcDbEntity
  8
0
  6
Continuous
 62
     2
100
AcDbSpline
210
0.0
220
0.0
230
1.0
 70
     8
 71
     3
 72
    15
 73
    11
 74
     9
 42
0.0000000001
 43
0.0000000001
 44
0.00000001
 40
0.0
 40
0.0
 40
0.0
 40
0.0
 40
0.6922447962837338
 40
1.408556947339084
 40
2.099601907764195
 40
2.812455769707317
 40
3.508829644304353
 40
4.20633952013336
 40
4.784920664005879
 40
5.59638560400483
 40
5.59638560400483
 40
5.59638560400483
 40
5.59638560400483
 10
5282.024136427229
 20
1029.863627728603
 30
0.0
 10
5282.035059660004
 20
1030.09474862879
 30
0.0
 10
5282.05728589485
 20
1030.56502583619
 30
0.0
 10
5282.253236156247
 20
1031.243498532823
 30
0.0
 10
5282.566792428555
 20
1031.880495653914
 30
0.0
 10
5282.99518966217
 20
1032.440325731169
 30
0.0
 10
5283.526576627464
 20
1032.906877823898
 30
0.0
 10
5284.102097369791
 20
1033.232424747912
 30
0.0
 10
5284.763384172371
 20
1033.466522415818
 30
0.0
 10
5285.228041434787
 20
1033.498678585975
 30
0.0
 10
5285.49929364861
 20
1033.517450341091
 30
0.0
 11
5282.024136427229
 21
1029.863627728603
 31
0.0
 11
5282.083288571181
 21
1030.553340626734
 31
0.0
 11
5282.275486776039
 21
1031.243386239573
 31
0.0
 11
5282.582644041834
 21
1031.862415763423
 31
0.0
 11
5283.015953426163
 21
1032.428457816578
 31
0.0
 11
5283.540048019171
 21
1032.887000541742
 31
0.0
 11
5284.14632884551
 21
1033.231882530969
 31
0.0
 11
5284.693826469187
 21
1033.41897206064
 31
0.0
 11
5285.49929364861
 21
1033.517450341091
 31
0.0
  0
SPLINE
  5
221
330
1F
100
AcDbEntity
  8
0
  6
Continuous
 62
     2
100
AcDbSpline
210
0.0
220
0.0
230
1.0
 70
     8
 71
     3
 72
    19
 73
    15
 74
    13
 42
0.0000000001
 43
0.0000000001
 44
0.00000001
 40
0.0
 40
0.0
 40
0.0
 40
0.0
 40
0.5358658698892812
 40
1.083857691053744
 40
1.440985468522133
 40
1.779811906856749
 40
2.0907965983961
 40
2.365449846531395
 40
2.597215038426013
 40
2.782992221591544
 40
2.921808511440053
 40
3.017966167628892
 40
3.05320027225109
 40
3.082283931359625
 40
3.082283931359625
 40
3.082283931359625
 40
3.082283931359625
 10
5418.44138793198
 20
1029.863627761287
 30
0.0
 10
5418.620001455004
 20
1029.861069688656
 30
0.0
 10
5418.981270293968
 20
1029.855895657522
 30
0.0
 10
5419.461121890888
 20
1029.832024549469
 30
0.0
 10
5419.874596600672
 20
1029.800464169151
 30
0.0
 10
5420.208544904881
 20
1029.766319776674
 30
0.0
 10
5420.514100030819
 20
1029.725933370387
 30
0.0
 10
5420.782713745767
 20
1029.679758838722
 30
0.0
 10
5421.008048801786
 20
1029.629610855362
 30
0.0
 10
5421.186157088029
 20
1029.577200602024
 30
0.0
 10
5421.316208371792
 20
1029.523699698881
 30
0.0
 10
5421.392824993076
 20
1029.474831322295
 30
0.0
 10
5421.429113331929
 20
1029.434165483015
 30
0.0
 10
5421.436332313773
 20
1029.41379384636
 30
0.0
 10
5421.439596643793
 20
1029.40458205631
 30
0.0
 11
5418.44138793198
 21
1029.863627761287
 31
0.0
 11
5418.977144990606
 21
1029.852829398219
 31
0.0
 11
5419.524476762448
 21
1029.825941341484
 31
0.0
 11
5419.880543695662
 21
1029.798435187422
 31
0.0
 11
5420.21757964372
 21
1029.763648336007
 31
0.0
 11
5420.525794111338
 21
1029.722231910248
 31
0.0
 11
5420.796348504736
 21
1029.674959011836
 31
0.0
 11
5421.022324313903
 21
1029.623480493545
 31
0.0
 11
5421.200017031166
 21
1029.569272929345
 31
0.0
 11
5421.32729883306
 21
1029.513871618586
 31
0.0
 11
5421.40605915314
 21
1029.458707256678
 31
0.0
 11
5421.428305845826
 21
1029.43138461418
 31
0.0
 11
5421.439596643793
 21
1029.40458205631
 31
0.0
  0
SPLINE
  5
222
330
1F
100
AcDbEntity
  8
0
  6
Continuous
 62
     2
100
AcDbSpline
210
0.0
220
0.0
230
1.0
 70
     8
 71
     3
 72
     9
 73
     5
 74
     3
 42
0.0000000001
 43
0.0000000001
 44
0.00000001
 40
0.0
 40
0.0
 40
0.0
 40
0.0
 40
0.1004950634741899
 40
0.2009804730525035
 40
0.2009804730525035
 40
0.2009804730525035
 40
0.2009804730525035
 10
5414.765263837338
 20
1033.519046459819
 30
0.0
 10
5414.798758102288
 20
1033.518476809996
 30
0.0
 10
5414.865743414615
 20
1033.517337565073
 30
0.0
 10
5414.932738380362
 20
1033.517404553266
 30
0.0
 10
5414.966234254219
 20
1033.517438045754
 30
0.0
 11
5414.765263837338
 21
1033.519046459819
 31
0.0
 11
5414.865749045774
 21
1033.5176390976
 31
0.0
 11
5414.966234254219
 21
1033.517438045754
 31
0.0
  0
SPLINE
  5
223
330
1F
100
AcDbEntity
  8
0
  6
DASHED
 62
     3
100
AcDbSpline
210
0.0
220
0.0
230
1.0
 70
     8
 71
     3
 72
    59
 73
    55
 74
    53
 42
0.0000000001
 43
0.0000000001
 44
0.00000001
 40
0.0
 40
0.0
 40
0.0
 40
0.0
 40
0.1255576724455285
 40
0.2510516103631576
 40
1.652824153682724
 40
3.067917964365899
 40
4.50965430977447
 40
5.991354457273866
 40
7.526339674226785
 40
9.127931227995925
 40
10.80945038594398
 40
12.58421841543639
 40
14.46555658383311
 40
16.46678615850049
 40
18.60122840679849
 40
20.88220459609436
 40
23.32303599374807
 40
25.93704386712596
 40
28.73754948358708
 40
31.7378741104996
 40
34.95133901522347
 40
38.39126546512141
 40
42.07097472755884
 40
46.00378806989846
 40
50.20302675950477
 40
54.68201206373686
 40
59.45406524996377
 40
64.53250758554367
 40
69.61094991948374
 40
74.38300310416633
 40
78.86198840695232
 40
83.06122709519985
 40
86.99404043626981
 40
90.67374969751853
 40
94.11367614630598
 40
97.32714104999212
 40
100.3274656759324
 40
103.1279712914913
 40
105.7419791640224
 40
108.1828105608885
 40
110.4637867494468
 40
112.5982289970563
 40
114.5994585710761
 40
116.4807967388644
 40
118.2555647677829
 40
119.9370839251889
 40
121.5386754784387
 40
123.073660694896
 40
124.5553608419179
 40
125.9970971868608
 40
127.4121909970865
 40
128.8139635399531
 40
128.9394582677104
 40
129.0650169524996
 40
129.0650169524996
 40
129.0650169524996
 40
129.0650169524996
 10
5285.700265420781
 20
1033.519046141084
 30
0.0
 10
5285.742116452469
 20
1033.519401389895
 30
0.0
 10
5285.825797271775
 20
1033.52011170719
 30
0.0
 10
5286.376717093651
 20
1033.52512825599
 30
0.0
 10
5287.357528143022
 20
1033.519478268536
 30
0.0
 10
5288.777052925952
 20
1033.521676855602
 30
0.0
 10
5290.223232294295
 20
1033.521071855201
 30
0.0
 10
5291.709372139255
 20
1033.521240524585
 30
0.0
 10
5293.248797983228
 20
1033.521192932671
 30
0.0
 10
5294.854829901105
 20
1033.521206506477
 30
0.0
 10
5296.540789498307
 20
1033.521202598581
 30
0.0
 10
5298.319997945378
 20
1033.521203732653
 30
0.0
 10
5300.205776537654
 20
1033.521203401377
 30
0.0
 10
5302.211446534357
 20
1033.521203498657
 30
0.0
 10
5304.350329205233
 20
1033.521203469974
 30
0.0
 10
5306.635745816945
 20
1033.521203478457
 30
0.0
 10
5309.081017637066
 20
1033.521203475942
 30
0.0
 10
5311.699465932894
 20
1033.521203476689
 30
0.0
 10
5314.504411971812
 20
1033.521203476467
 30
0.0
 10
5317.509177021177
 20
1033.521203476533
 30
0.0
 10
5320.727082348357
 20
1033.521203476514
 30
0.0
 10
5324.171449220706
 20
1033.521203476519
 30
0.0
 10
5327.8555989056
 20
1033.521203476518
 30
0.0
 10
5331.792852670395
 20
1033.521203476518
 30
0.0
 10
5335.996531782454
 20
1033.521203476518
 30
0.0
 10
5340.47995750914
 20
1033.521203476518
 30
0.0
 10
5345.256451117823
 20
1033.521203476518
 30
0.0
 10
5350.232763736403
 20
1033.521203476518
 30
0.0
 10
5355.209076354473
 20
1033.521203476518
 30
0.0
 10
5359.985569961606
 20
1033.521203476518
 30
0.0
 10
5364.468995686848
 20
1033.521203476518
 30
0.0
 10
5368.672674797548
 20
1033.521203476518
 30
0.0
 10
5372.609928561071
 20
1033.521203476517
 30
0.0
 10
5376.294078244771
 20
1033.521203476519
 30
0.0
 10
5379.738445116013
 20
1033.521203476514
 30
0.0
 10
5382.95635044215
 20
1033.521203476533
 30
0.0
 10
5385.961115490545
 20
1033.521203476467
 30
0.0
 10
5388.766061528558
 20
1033.521203476689
 30
0.0
 10
5391.384509823537
 20
1033.521203475942
 30
0.0
 10
5393.829781642869
 20
1033.521203478456
 30
0.0
 10
5396.115198253842
 20
1033.521203469975
 30
0.0
 10
5398.254080924028
 20
1033.521203498653
 30
0.0
 10
5400.259750920083
 20
1033.521203401389
 30
0.0
 10
5402.145529511749
 20
1033.521203732613
 30
0.0
 10
5403.924737958247
 20
1033.521202598716
 30
0.0
 10
5405.610697554897
 20
1033.52120650601
 30
0.0
 10
5407.216729472275
 20
1033.521192934296
 30
0.0
 10
5408.756155315686
 20
1033.521240518874
 30
0.0
 10
5410.24229516039
 20
1033.521071875488
 30
0.0
 10
5411.688474527467
 20
1033.52167678264
 30
0.0
 10
5413.107999312837
 20
1033.519478534439
 30
0.0
 10
5414.088810617737
 20
1033.525127652586
 30
0.0
 10
5414.639731046771
 20
1033.520111867275
 30
0.0
 10
5414.723412467738
 20
1033.519401655947
 30
0.0
 10
5414.765263837338
 20
1033.519046459819
 30
0.0
 11
5285.700265420781
 21
1033.519046141084
 31
0.0
 11
5285.825818459716
 21
1033.520124808801
 31
0.0
 11
5285.95130776177
 21
1033.521203476518
 31
0.0
 11
5287.35308030509
 21
1033.521203476518
 31
0.0
 11
5288.768174115773
 21
1033.521203476518
 31
0.0
 11
5290.209910461182
 21
1033.521203476518
 31
0.0
 11
5291.691610608681
 21
1033.521203476518
 31
0.0
 11
5293.226595825634
 21
1033.521203476518
 31
0.0
 11
5294.828187379403
 21
1033.521203476518
 31
0.0
 11
5296.509706537351
 21
1033.521203476518
 31
0.0
 11
5298.284474566844
 21
1033.521203476518
 31
0.0
 11
5300.16581273524
 21
1033.521203476518
 31
0.0
 11
5302.167042309908
 21
1033.521203476518
 31
0.0
 11
5304.301484558206
 21
1033.521203476518
 31
0.0
 11
5306.582460747502
 21
1033.521203476518
 31
0.0
 11
5309.023292145155
 21
1033.521203476518
 31
0.0
 11
5311.637300018533
 21
1033.521203476518
 31
0.0
 11
5314.437805634994
 21
1033.521203476518
 31
0.0
 11
5317.438130261907
 21
1033.521203476518
 31
0.0
 11
5320.651595166631
 21
1033.521203476518
 31
0.0
 11
5324.091521616529
 21
1033.521203476518
 31
0.0
 11
5327.771230878966
 21
1033.521203476518
 31
0.0
 11
5331.704044221306
 21
1033.521203476518
 31
0.0
 11
5335.903282910912
 21
1033.521203476518
 31
0.0
 11
5340.382268215144
 21
1033.521203476518
 31
0.0
 11
5345.154321401371
 21
1033.521203476518
 31
0.0
 11
5350.232763736951
 21
1033.521203476518
 31
0.0
 11
5355.311206070891
 21
1033.521203476518
 31
0.0
 11
5360.083259255573
 21
1033.521203476518
 31
0.0
 11
5364.562244558359
 21
1033.521203476518
 31
0.0
 11
5368.761483246607
 21
1033.521203476518
 31
0.0
 11
5372.694296587677
 21
1033.521203476518
 31
0.0
 11
5376.374005848926
 21
1033.521203476518
 31
0.0
 11
5379.813932297713
 21
1033.521203476518
 31
0.0
 11
5383.027397201399
 21
1033.521203476518
 31
0.0
 11
5386.02772182734
 21
1033.521203476518
 31
0.0
 11
5388.828227442898
 21
1033.521203476518
 31
0.0
 11
5391.44223531543
 21
1033.521203476518
 31
0.0
 11
5393.883066712296
 21
1033.521203476518
 31
0.0
 11
5396.164042900854
 21
1033.521203476518
 31
0.0
 11
5398.298485148463
 21
1033.521203476518
 31
0.0
 11
5400.299714722483
 21
1033.521203476518
 31
0.0
 11
5402.181052890272
 21
1033.521203476518
 31
0.0
 11
5403.95582091919
 21
1033.521203476518
 31
0.0
 11
5405.637340076596
 21
1033.521203476518
 31
0.0
 11
5407.238931629846
 21
1033.521203476518
 31
0.0
 11
5408.773916846303
 21
1033.521203476518
 31
0.0
 11
5410.255616993325
 21
1033.521203476518
 31
0.0
 11
5411.697353338268
 21
1033.521203476518
 31
0.0
 11
5413.112447148494
 21
1033.521203476518
 31
0.0
 11
5414.51421969136
 21
1033.521203476518
 31
0.0
 11
5414.639709784653
 21
1033.520124968169
 31
0.0
 11
5414.765263837338
 21
1033.519046459819
 31
0.0
  0
SPLINE
  5
224
330
1F
100
AcDbEntity
  8
0
  6
Continuous
 62
     2
100
AcDbSpline
210
0.0
220
0.0
230
1.0
 70
     8
 71
     3
 72
    18
 73
    14
 74
    12
 42
0.0000000001
 43
0.0000000001
 44
0.00000001
 40
0.0
 40
0.0
 40
0.0
 40
0.0
 40
0.0275256399286705
 40
0.0902329297492736
 40
0.189985557901948
 40
0.3273942639847882
 40
0.5015739707580779
 40
0.7101341054752006
 40
0.94925625601173
 40
1.213879878993531
 40
1.498102532218295
 40
1.947250325325995
 40
2.405088318800816
 40
2.405088318800816
 40
2.405088318800816
 40
2.405088318800816
 10
5414.965458794965
 20
1035.922524958731
 30
0.0
 10
5414.965547539152
 20
1035.913350146219
 30
0.0
 10
5414.965838455119
 20
1035.883273816842
 30
0.0
 10
5414.965864545469
 20
1035.819944594506
 30
0.0
 10
5414.966003397165
 20
1035.719988837962
 30
0.0
 10
5414.966006286922
 20
1035.582874972248
 30
0.0
 10
5414.966006082364
 20
1035.409492193355
 30
0.0
 10
5414.96596870955
 20
1035.202204840577
 30
0.0
 10
5414.965929440968
 20
1034.964769549505
 30
0.0
 10
5414.965900045192
 20
1034.702113405741
 30
0.0
 10
5414.965901477523
 20
1034.36944871698
 30
0.0
 10
5414.965971016339
 20
1033.972379233649
 30
0.0
 10
5414.966145949556
 20
1033.670050686051
 30
0.0
 10
5414.966234254219
 20
1033.517438045754
 30
0.0
 11
5414.965458794965
 21
1035.922524958731
 31
0.0
 11
5414.965699109138
 21
1035.895000367861
 31
0.0
 11
5414.965867341727
 21
1035.83229330371
 31
0.0
 11
5414.965966827726
 21
1035.732540725167
 31
0.0
 11
5414.966005579065
 21
1035.595132024548
 31
0.0
 11
5414.966001363261
 21
1035.420952317826
 31
0.0
 11
5414.965971029109
 21
1035.212392185315
 31
0.0
 11
5414.9659328699
 21
1034.973270037823
 31
0.0
 11
5414.965905719197
 21
1034.708646416234
 31
0.0
 11
5414.965907513063
 21
1034.424423763015
 31
0.0
 11
5414.966000424029
 21
1033.975275979517
 31
0.0
 11
5414.966234254219
 21
1033.517438045754
 31
0.0
  0
SPLINE
  5
225
330
1F
100
AcDbEntity
  8
0
  6
Continuous
 62
     2
100
AcDbSpline
210
0.0
220
0.0
230
1.0
 70
     8
 71
     3
 72
    18
 73
    14
 74
    12
 42
0.0000000001
 43
0.0000000001
 44
0.00000001
 40
0.0
 40
0.0
 40
0.0
 40
0.0
 40
0.4578357642525155
 40
0.9069811561176607
 40
1.191202182965375
 40
1.455824215316891
 40
1.69494486104708
 40
1.903503625676426
 40
2.077682141665942
 40
2.215089874049994
 40
2.314841774758227
 40
2.377548602008061
 40
2.405074053689078
 40
2.405074053689078
 40
2.405074053689078
 40
2.405074053689078
 10
5414.966233330261
 20
994.2545884008665
 30
0.0
 10
5414.966145021259
 20
994.1019765036453
 30
0.0
 10
5414.965970079484
 20
993.7996494995398
 30
0.0
 10
5414.965900568168
 20
993.4025821018137
 30
0.0
 10
5414.965899174542
 20
993.0699192858025
 30
0.0
 10
5414.965928610191
 20
992.80726471598
 30
0.0
 10
5414.965967920784
 20
992.5698309134254
 30
0.0
 10
5414.96600533442
 20
992.3625449158739
 30
0.0
 10
5414.96600557167
 20
992.1891633151896
 30
0.0
 10
5414.966002709538
 20
992.0520504133997
 30
0.0
 10
5414.96586386047
 20
991.9520953781908
 30
0.0
 10
5414.965837781187
 20
991.8887666150715
 30
0.0
 10
5414.965546832018
 20
991.8586905029382
 30
0.0
 10
5414.965458077668
 20
991.849515753269
 30
0.0
 11
5414.966233330261
 21
994.2545884008665
 31
0.0
 11
5414.965999494579
 21
993.7967526963288
 31
0.0
 11
5414.965906611827
 21
993.3476073140677
 31
0.0
 11
5414.965904851048
 21
993.0633862872254
 31
0.0
 11
5414.965932041583
 21
992.7987642562708
 31
0.0
 11
5414.965970243003
 21
992.5596436135921
 31
0.0
 11
5414.966000617258
 21
992.3510848511746
 31
0.0
 11
5414.966004866544
 21
992.1769063352369
 31
0.0
 11
5414.965966137969
 21
992.0394986083107
 31
0.0
 11
5414.965866660082
 21
991.9397467572048
 31
0.0
 11
5414.965698418728
 21
991.8770401556498
 31
0.0
 11
5414.965458077668
 21
991.849515753269
 31
0.0
  0
SPLINE
  5
226
330
1F
100
AcDbEntity
  8
0
  6
Continuous
 62
     2
100
AcDbSpline
210
0.0
220
0.0
230
1.0
 70
     8
 71
     3
 72
    18
 73
    14
 74
    12
 42
0.0000000001
 43
0.0000000001
 44
0.00000001
 40
0.0
 40
0.0
 40
0.0
 40
0.0
 40
0.027525438085835
 40
0.0902322332199678
 40
0.1899840830697414
 40
0.3273917445535287
 40
0.5015701696407299
 40
0.7101288241204671
 40
0.9492493420199875
 40
1.213871231175217
 40
1.498092102325195
 40
1.947237244263704
 40
2.40507274878341
 40
2.40507274878341
 40
2.40507274878341
 40
2.40507274878341
 10
5285.500069435845
 20
991.8495158027979
 30
0.0
 10
5285.499980658814
 20
991.8586905477305
 30
0.0
 10
5285.499689635295
 20
991.8887666439548
 30
0.0
 10
5285.499663551443
 20
991.9520953752503
 30
0.0
 10
5285.499524670086
 20
992.0520503589383
 30
0.0
 10
5285.499521812532
 20
992.189163189938
 30
0.0
 10
5285.499522057019
 20
992.3625446999347
 30
0.0
 10
5285.499559489423
 20
992.569830587869
 30
0.0
 10
5285.499598821249
 20
992.8072642633568
 30
0.0
 10
5285.499628277451
 20
993.0699186909367
 30
0.0
 10
5285.499626900816
 20
993.4025813240073
 30
0.0
 10
5285.499557393595
 20
993.7996484999533
 30
0.0
 10
5285.499382425258
 20
994.1019753341583
 30
0.0
 10
5285.499294102847
 20
994.2545871447945
 30
0.0
 11
5285.500069435845
 21
991.8495158027979
 31
0.0
 11
5285.499829033458
 21
991.8770401910474
 31
0.0
 11
5285.499660750698
 21
991.9397467603756
 31
0.0
 11
5285.499561250693
 21
992.0394985606009
 31
0.0
 11
5285.49952251742
 21
992.1769062166255
 31
0.0
 11
5285.499526774991
 21
992.3510846416607
 31
0.0
 11
5285.499557166246
 21
992.5596432939261
 31
0.0
 11
5285.499595388675
 21
992.7987638087708
 31
0.0
 11
5285.499622599278
 21
993.063385696527
 31
0.0
 11
5285.499620852851
 21
993.3476065676716
 31
0.0
 11
5285.499527971192
 21
993.7967517000063
 31
0.0
 11
5285.499294102847
 21
994.2545871447945
 31
0.0
  0
SPLINE
  5
227
330
1F
100
AcDbEntity
  8
0
  6
Continuous
 62
     2
100
AcDbSpline
210
0.0
220
0.0
230
1.0
 70
     8
 71
     3
 72
    12
 73
     8
 74
     6
 42
0.0000000001
 43
0.0000000001
 44
0.00000001
 40
0.0
 40
0.0
 40
0.0
 40
0.0
 40
17.02024715043354
 40
34.04049430086707
 40
88.5837553774827
 40
115.8450608985413
 40
129.4653886418228
 40
129.4653886418228
 40
129.4653886418228
 40
129.4653886418228
 10
5285.500069435845
 20
991.8495158027979
 30
0.0
 10
5291.173485152656
 20
991.8495156873726
 30
0.0
 10
5302.520316586277
 20
991.8495154565214
 30
0.0
 10
5332.048235045442
 20
991.8495147212666
 30
0.0
 10
5364.989839628142
 20
991.8495151629245
 30
0.0
 10
5396.798137741795
 20
991.8495155184394
 30
0.0
 10
5410.425348829907
 20
991.8495156945837
 30
0.0
 10
5414.965458077668
 20
991.849515753269
 30
0.0
 11
5285.500069435845
 21
991.8495158027979
 31
0.0
 11
5302.520316586279
 21
991.8495154435996
 31
0.0
 11
5319.540563736712
 21
991.8495150844013
 31
0.0
 11
5374.083824813328
 21
991.8495152578115
 31
0.0
 11
5401.345130334386
 21
991.8495155798591
 31
0.0
 11
5414.965458077668
 21
991.849515753269
 31
0.0
  0
SPLINE
  5
228
330
1F
100
AcDbEntity
  8
0
  6
Continuous
 62
     2
100
AcDbSpline
210
0.0
220
0.0
230
1.0
 70
     8
 71
     3
 72
    12
 73
     8
 74
     6
 42
0.0000000001
 43
0.0000000001
 44
0.00000001
 40
0.0
 40
0.0
 40
0.0
 40
0.0
 40
17.02063481693398
 40
34.04126963386705
 40
88.58478912801269
 40
115.8463530666034
 40
129.4669392274169
 40
129.4669392274169
 40
129.4669392274169
 40
129.4669392274169
 10
5285.499294102847
 20
994.2545871447945
 30
0.0
 10
5291.172839041825
 20
994.2545888807069
 30
0.0
 10
5302.519928919781
 20
994.2545923525319
 30
0.0
 10
5332.048191962447
 20
994.2546034089618
 30
0.0
 10
5364.990098045673
 20
994.2545967767373
 30
0.0
 10
5396.798654576856
 20
994.2545917568978
 30
0.0
 10
5410.426037943324
 20
994.2545892395605
 30
0.0
 10
5414.966233330261
 20
994.2545884008665
 30
0.0
 11
5285.499294102847
 21
994.2545871447945
 31
0.0
 11
5302.51992891978
 21
994.2545925467639
 31
0.0
 11
5319.540563736712
 21
994.2545979487332
 31
0.0
 11
5374.084083230858
 21
994.2545954733604
 31
0.0
 11
5401.345647169448
 21
994.2545908762395
 31
0.0
 11
5414.966233330261
 21
994.2545884008665
 31
0.0
  0
SPLINE
  5
229
330
1F
100
AcDbEntity
  8
0
  6
Continuous
 62
     2
100
AcDbSpline
210
0.0
220
0.0
230
1.0
 70
     8
 71
     3
 72
    15
 73
    11
 74
     9
 42
0.0000000001
 43
0.0000000001
 44
0.00000001
 40
0.0
 40
0.0
 40
0.0
 40
0.0
 40
1.169533161075861
 40
2.578455460224687
 40
4.083954147470547
 40
5.134604423788538
 40
6.355057951218188
 40
7.672950053904284
 40
9.208861155047586
 40
10.19031769318357
 40
10.19031769318357
 40
10.19031769318357
 40
10.19031769318357
 10
5285.500069435845
 20
991.8495158027979
 30
0.0
 10
5285.109785468849
 20
991.8707418295935
 30
0.0
 10
5284.249331178853
 20
991.9175385913369
 30
0.0
 10
5282.934352920153
 20
992.3247497364064
 30
0.0
 10
5281.77436854547
 20
992.9805481964593
 30
0.0
 10
5280.820085088994
 20
993.8097135223268
 30
0.0
 10
5280.061578659141
 20
994.7448428689704
 30
0.0
 10
5279.428004086561
 20
995.9543105974581
 30
0.0
 10
5279.074656294
 20
997.2002648534574
 30
0.0
 10
5279.039599229243
 20
998.0400485570757
 30
0.0
 10
5279.025931386344
 20
998.3674585045447
 30
0.0
 11
5285.500069435845
 21
991.8495158027979
 31
0.0
 11
5284.335436117438
 21
991.956459940141
 31
0.0
 11
5282.985498470434
 21
992.3598584952218
 31
0.0
 11
5281.676652793666
 21
993.1038002212355
 31
0.0
 11
5280.883085124397
 21
993.7923612987141
 31
0.0
 11
5280.11493591216
 21
994.740756575144
 31
0.0
 11
5279.500478122158
 21
995.9066387384127
 31
0.0
 11
5279.096859746391
 21
997.388568263511
 31
0.0
 11
5279.025931386344
 21
998.3674585045447
 31
0.0
  0
SPLINE
  5
22A
330
1F
100
AcDbEntity
  8
0
  6
Continuous
 62
     2
100
AcDbSpline
210
0.0
220
0.0
230
1.0
 70
     8
 71
     3
 72
    15
 73
    11
 74
     9
 42
0.0000000001
 43
0.0000000001
 44
0.00000001
 40
0.0
 40
0.0
 40
0.0
 40
0.0
 40
0.8113307097809975
 40
1.39008203009088
 40
2.204918975440956
 40
2.783718986285473
 40
3.496538995381201
 40
4.187634544856522
 40
5.008017298321541
 40
5.596004399953095
 40
5.596004399953095
 40
5.596004399953095
 40
5.596004399953095
 10
5285.499294102847
 20
994.2545871447945
 30
0.0
 10
5285.228075036895
 20
994.2733791116831
 30
0.0
 10
5284.763385675021
 20
994.3055760631444
 30
0.0
 10
5284.065051411483
 20
994.5525364658711
 30
0.0
 10
5283.493481383893
 20
994.888955750801
 30
0.0
 10
5282.971363508649
 20
995.3629505858223
 30
0.0
 10
5282.566775951284
 20
995.8916059824235
 30
0.0
 10
5282.237722520704
 20
996.5596652301481
 30
0.0
 10
5282.050880833807
 20
997.2423223134017
 30
0.0
 10
5282.032010808227
 20
997.7122345778807
 30
0.0
 10
5282.024132670528
 20
997.9084205083108
 30
0.0
 11
5285.499294102847
 21
994.2545871447945
 31
0.0
 11
5284.69395823151
 21
994.3530333482349
 31
0.0
 11
5284.146296518174
 21
994.5401689635142
 31
0.0
 11
5283.445053003036
 21
994.9551590597639
 31
0.0
 11
5283.015945020857
 21
995.343586391685
 31
0.0
 11
5282.582654681719
 21
995.9096003909616
 31
0.0
 11
5282.275473521919
 21
996.528674533184
 31
0.0
 11
5282.066324605951
 21
997.3219491345249
 31
0.0
 11
5282.024132670528
 21
997.9084205083108
 31
0.0
  0
SPLINE
  5
22B
330
1F
100
AcDbEntity
  8
0
  6
Continuous
 62
     2
100
AcDbSpline
210
0.0
220
0.0
230
1.0
 70
     8
 71
     3
 72
    12
 73
     8
 74
     6
 42
0.0000000001
 43
0.0000000001
 44
0.00000001
 40
0.0
 40
0.0
 40
0.0
 40
0.0
 40
17.0202475086162
 40
34.04049501723149
 40
88.58375628080466
 40
115.8450619888208
 40
129.4653899190625
 40
129.4653899190625
 40
129.4653899190625
 40
129.4653899190625
 10
5285.500068875903
 20
1035.922524751847
 30
0.0
 10
5291.17348471211
 20
1035.922524846777
 30
0.0
 10
5302.52031638452
 20
1035.922525036635
 30
0.0
 10
5332.048235144785
 20
1035.922525640943
 30
0.0
 10
5364.989839971522
 20
1035.922525280927
 30
0.0
 10
5396.798138272132
 20
1035.92252509478
 30
0.0
 10
5410.425349484884
 20
1035.92252499273
 30
0.0
 10
5414.965458794965
 20
1035.922524958731
 30
0.0
 11
5285.500068875903
 21
1035.922524751847
 31
0.0
 11
5302.520316384519
 21
1035.922525047226
 31
0.0
 11
5319.540563893134
 21
1035.922525342604
 31
0.0
 11
5374.083825156707
 21
1035.922525243082
 31
0.0
 11
5401.345130864724
 21
1035.922525058254
 31
0.0
 11
5414.965458794965
 21
1035.922524958731
 31
0.0
  0
SPLINE
  5
22C
330
1F
100
AcDbEntity
  8
0
  6
Continuous
 62
     2
100
AcDbSpline
210
0.0
220
0.0
230
1.0
 70
     8
 71
     3
 72
    18
 73
    14
 74
    12
 42
0.0000000001
 43
0.0000000001
 44
0.00000001
 40
0.0
 40
0.0
 40
0.0
 40
0.0
 40
0.4578360739002719
 40
0.9069817650340164
 40
1.191202982590129
 40
1.455825196835774
 40
1.694946013868335
 40
1.903504936796028
 40
2.077683594725322
 40
2.215091448394061
 40
2.31484344461894
 40
2.377550336644909
 40
2.405075816321467
 40
2.405075816321467
 40
2.405075816321467
 40
2.405075816321467
 10
5285.49929364861
 20
1033.517450341091
 30
0.0
 10
5285.499381946527
 20
1033.670062341534
 30
0.0
 10
5285.499556866341
 20
1033.972389548623
 30
0.0
 10
5285.499626383482
 20
1034.369457212886
 30
0.0
 10
5285.499627794528
 20
1034.702120252854
 30
0.0
 10
5285.499598379482
 20
1034.964775003979
 30
0.0
 10
5285.49955909064
 20
1035.20220897704
 30
0.0
 10
5285.49952169709
 20
1035.409495131764
 30
0.0
 10
5285.499521470694
 20
1035.582876872985
 30
0.0
 10
5285.499524341075
 20
1035.71998989428
 30
0.0
 10
5285.499663168541
 20
1035.819945023522
 30
0.0
 10
5285.499689246833
 20
1035.883273849116
 30
0.0
 10
5285.499980138955
 20
1035.913349992689
 30
0.0
 10
5285.500068875903
 20
1035.922524751847
 30
0.0
 11
5285.49929364861
 21
1033.517450341091
 31
0.0
 11
5285.499527457763
 21
1033.97528635529
 31
0.0
 11
5285.499620344084
 21
1034.424432036819
 31
0.0
 11
5285.499622119643
 21
1034.70865325437
 31
0.0
 11
5285.499594949369
 21
1034.97327546722
 31
0.0
 11
5285.499556769581
 21
1035.212396281205
 31
0.0
 11
5285.499526414063
 21
1035.420955201924
 31
0.0
 11
5285.499522176509
 21
1035.595133859801
 31
0.0
 11
5285.499560906063
 21
1035.732541708012
 31
0.0
 11
5285.499660370352
 21
1035.832293654648
 31
0.0
 11
5285.499828581786
 21
1035.89500032106
 31
0.0
 11
5285.500068875903
 21
1035.922524751847
 31
0.0
  0
SPLINE
  5
22D
330
1F
100
AcDbEntity
  8
0
  6
Continuous
 62
     2
100
AcDbSpline
210
0.0
220
0.0
230
1.0
 70
     8
 71
     3
 72
    12
 73
     8
 74
     6
 42
0.0000000001
 43
0.0000000001
 44
0.00000001
 40
0.0
 40
0.0
 40
0.0
 40
0.0
 40
17.02063512226255
 40
34.04127024452509
 40
88.51779985558301
 40
115.7123739142062
 40
129.2659702390179
 40
129.2659702390179
 40
129.2659702390179
 40
129.2659702390179
 10
5285.49929364861
 20
1033.517450341091
 30
0.0
 10
5291.172838689292
 20
1033.517450279401
 30
0.0
 10
5302.519928770656
 20
1033.517450156022
 30
0.0
 10
5332.02586205772
 20
1033.517422991974
 30
0.0
 10
5364.923108302773
 20
1033.517644142035
 30
0.0
 10
5396.664675008241
 20
1033.517326509077
 30
0.0
 10
5410.247398414117
 20
1033.518617164062
 30
0.0
 10
5414.765263837338
 20
1033.519046459819
 30
0.0
 11
5285.49929364861
 21
1033.517450341091
 31
0.0
 11
5302.519928770872
 21
1033.517447575249
 31
0.0
 11
5319.540563893134
 21
1033.517444809406
 31
0.0
 11
5374.017093504161
 21
1033.517502644452
 31
0.0
 11
5401.211667559637
 21
1033.517916401813
 31
0.0
 11
5414.765263837338
 21
1033.519046459819
 31
0.0
  0
SPLINE
  5
22E
330
1F
100
AcDbEntity
  8
0
  6
Continuous
 62
     2
100
AcDbSpline
210
0.0
220
0.0
230
1.0
 70
     8
 71
     3
 72
    34
 73
    30
 74
    28
 42
0.0000000001
 43
0.0000000001
 44
0.00000001
 40
0.0
 40
0.0
 40
0.0
 40
0.0
 40
0.4701034028669423
 40
0.9057005976581775
 40
1.30398699081357
 40
1.662156600360958
 40
1.977402206967813
 40
2.246915488564324
 40
2.46788714559788
 40
2.881899746866567
 40
3.261225606458877
 40
3.604537404580957
 40
3.910506652885444
 40
4.177803768211349
 40
4.405098142885288
 40
4.591058214842258
 40
4.677535590615745
 40
4.808012090137984
 40
4.973873098423698
 40
5.166504741204498
 40
5.377294232009048
 40
5.597630433622566
 40
5.818904831048961
 40
6.032513343916731
 40
6.220452207883668
 40
6.365143687433845
 40
6.467664653091234
 40
6.529169084438912
 40
6.551437497577599
 40
6.551437497577599
 40
6.551437497577599
 40
6.551437497577599
 10
5550.872219013697
 20
1029.40458212306
 30
0.0
 10
5550.861504334228
 20
1029.560916622778
 30
0.0
 10
5550.840861446857
 20
1029.862110464317
 30
0.0
 10
5550.809591885239
 20
1030.295647399803
 30
0.0
 10
5550.780054733768
 20
1030.691899427786
 30
0.0
 10
5550.752622816809
 20
1031.048078849832
 30
0.0
 10
5550.727798840389
 20
1031.361406746344
 30
0.0
 10
5550.706053549885
 20
1031.629102009895
 30
0.0
 10
5550.681133651712
 20
1031.929569657565
 30
0.0
 10
5550.65246601836
 20
1032.266455994236
 30
0.0
 10
5550.619263653262
 20
1032.643882296367
 30
0.0
 10
5550.588289987129
 20
1032.985349774488
 30
0.0
 10
5550.559902307162
 20
1033.289554490588
 30
0.0
 10
5550.53445667477
 20
1033.555192369594
 30
0.0
 10
5550.512316979872
 20
1033.780960122544
 30
0.0
 10
5550.495709340874
 20
1033.946707540034
 30
0.0
 10
5550.482158166491
 20
1034.080326802335
 30
0.0
 10
5550.469118655559
 20
1034.207263848584
 30
0.0
 10
5550.452172047259
 20
1034.369370239199
 30
0.0
 10
5550.432015579807
 20
1034.558057813183
 30
0.0
 10
5550.40934078619
 20
1034.764736297763
 30
0.0
 10
5550.384863576075
 20
1034.980825083811
 30
0.0
 10
5550.359219841169
 20
1035.197709265497
 30
0.0
 10
5550.333747354156
 20
1035.403792360398
 30
0.0
 10
5550.30930495032
 20
1035.584102051531
 30
0.0
 10
5550.289498671269
 20
1035.728114073454
 30
0.0
 10
5550.269946632838
 20
1035.828553013604
 30
0.0
 10
5550.261827948647
 20
1035.891262197272
 30
0.0
 10
5550.248550059683
 20
1035.915959689375
 30
0.0
 10
5550.245020544612
 20
1035.922524751848
 30
0.0
 11
5550.872219013697
 21
1029.40458212306
 31
0.0
 11
5550.839785146693
 21
1029.873565335615
 31
0.0
 11
5550.808515498311
 21
1030.308038723983
 31
0.0
 11
5550.778889121346
 21
1030.705221715513
 31
0.0
 11
5550.751385068601
 21
1031.062333737553
 31
0.0
 11
5550.726482392874
 21
1031.376594217453
 31
0.0
 11
5550.704660146961
 21
1031.64522258256
 31
0.0
 11
5550.686397383665
 21
1031.865438260224
 31
0.0
 11
5550.651280940058
 21
1032.277958889281
 31
0.0
 11
5550.618032147679
 21
1032.655824772315
 31
0.0
 11
5550.587009564176
 21
1032.997732055131
 31
0.0
 11
5550.558571747196
 21
1033.302376883535
 31
0.0
 11
5550.533077254385
 21
1033.568455403333
 31
0.0
 11
5550.51088464339
 21
1033.794663760331
 31
0.0
 11
5550.492352471856
 21
1033.979698100334
 31
0.0
 11
5550.483623189258
 21
1034.065733768205
 31
0.0
 11
5550.470289710442
 21
1034.195527201283
 31
0.0
 11
5550.453042383739
 21
1034.360489026537
 31
0.0
 11
5550.432571557481
 21
1034.552029870935
 31
0.0
 11
5550.409567580002
 21
1034.761560361446
 31
0.0
 11
5550.384720799629
 21
1034.980491125037
 31
0.0
 11
5550.358721564697
 21
1035.200232788678
 31
0.0
 11
5550.332260223538
 21
1035.412195979335
 31
0.0
 11
5550.307288101535
 21
1035.59846838661
 31
0.0
 11
5550.2860703474
 21
1035.741595711617
 31
0.0
 11
5550.268614686375
 21
1035.842619710239
 31
0.0
 11
5550.2549288437
 21
1035.902582138356
 31
0.0
 11
5550.245020544612
 21
1035.922524751848
 31
0.0
  0
SPLINE
  5
22F
330
1F
100
AcDbEntity
  8
0
  6
Continuous
 62
     7
100
AcDbSpline
210
0.0
220
0.0
230
1.0
 70
     8
 71
     3
 72
    11
 73
     7
 74
     5
 42
0.0000000001
 43
0.0000000001
 44
0.00000001
 40
0.0
 40
0.0
 40
0.0
 40
0.0
 40
0.0102137168044134
 40
0.0143335232851116
 40
0.0312848852888819
 40
0.042296133497032
 40
0.042296133497032
 40
0.042296133497032
 40
0.042296133497032
 10
5553.081060188494
 20
1033.517450341093
 30
0.0
 10
5553.081757298996
 20
1033.51411788722
 30
0.0
 10
5553.082735596101
 20
1033.509441254206
 30
0.0
 10
5553.084807939056
 20
1033.499220937102
 30
0.0
 10
5553.086937356992
 20
1033.488740838621
 30
0.0
 10
5553.088711962087
 20
1033.479590426762
 30
0.0
 10
5553.089410774432
 20
1033.475987134529
 30
0.0
 11
5553.081060188494
 21
1033.517450341093
 31
0.0
 11
5553.083136881272
 21
1033.507449973197
 31
0.0
 11
5553.083958070229
 21
1033.5034128388
 31
0.0
 11
5553.087301720047
 21
1033.486794515188
 31
0.0
 11
5553.089410774432
 21
1033.475987134529
 31
0.0
  0
SPLINE
  5
230
330
1F
100
AcDbEntity
  8
0
  6
Continuous
 62
     7
100
AcDbSpline
210
0.0
220
0.0
230
1.0
 70
     8
 71
     3
 72
    11
 73
     7
 74
     5
 42
0.0000000001
 43
0.0000000001
 44
0.00000001
 40
0.0
 40
0.0
 40
0.0
 40
0.0
 40
0.0112384298996035
 40
0.0253398878489102
 40
0.0306968255005154
 40
0.0416806665961299
 40
0.0416806665961299
 40
0.0416806665961299
 40
0.0416806665961299
 10
5553.089301173843
 20
994.2954469888699
 30
0.0
 10
5553.088587798966
 20
994.2917693816505
 30
0.0
 10
5553.086979314551
 20
994.2834772843272
 30
0.0
 10
5553.084946443552
 20
994.2734488993469
 30
0.0
 10
5553.082931633026
 20
994.2635035163147
 30
0.0
 10
5553.08181951285
 20
994.2581713120596
 30
0.0
 10
5553.081071974957
 20
994.2545871447967
 30
0.0
 11
5553.089301173843
 21
994.2954469888699
 31
0.0
 11
5553.087147353471
 21
994.2844168771563
 31
0.0
 11
5553.084367748196
 21
994.2705920838192
 31
0.0
 11
5553.083300758268
 21
994.265342482549
 31
0.0
 11
5553.081071974957
 21
994.2545871447967
 31
0.0
  0
SPLINE
  5
231
330
1F
100
AcDbEntity
  8
0
  6
Continuous
 62
     2
100
AcDbSpline
210
0.0
220
0.0
230
1.0
 70
     8
 71
     3
 72
    29
 73
    25
 74
    23
 42
0.0000000001
 43
0.0000000001
 44
0.00000001
 40
0.0
 40
0.0
 40
0.0
 40
0.0
 40
0.2641048122915919
 40
0.5337857255994585
 40
0.8054456113702245
 40
1.075487365651621
 40
1.287503112169968
 40
1.493494270625857
 40
1.691344595500021
 40
1.878937858842248
 40
2.054157862827215
 40
2.189615672103506
 40
2.314202002512796
 40
2.427438431071847
 40
2.528846570402658
 40
2.617948094762554
 40
2.694264790120807
 40
2.758063819074396
 40
2.809362011721536
 40
2.848425604960109
 40
2.869929763558686
 40
2.884988274852278
 40
2.889442497453534
 40
2.896818137380703
 40
2.896818137380703
 40
2.896818137380703
 40
2.896818137380703
 10
5550.872219013697
 20
1029.40458212306
 30
0.0
 10
5550.959231006009
 20
1029.417963599855
 30
0.0
 10
5551.135092093315
 20
1029.445009079408
 30
0.0
 10
5551.40042096455
 20
1029.486034929018
 30
0.0
 10
5551.667679871462
 20
1029.527528995679
 30
0.0
 10
5551.915916428567
 20
1029.566255281963
 30
0.0
 10
5552.142499294857
 20
1029.601771892483
 30
0.0
 10
5552.345286791093
 20
1029.633701108451
 30
0.0
 10
5552.540009969128
 20
1029.664507105081
 30
0.0
 10
5552.72457812859
 20
1029.693861437221
 30
0.0
 10
5552.888582284457
 20
1029.720103666762
 30
0.0
 10
5553.031823697421
 20
1029.743178466045
 30
0.0
 10
5553.154645557897
 20
1029.7630993057
 30
0.0
 10
5553.266241542025
 20
1029.781340582509
 30
0.0
 10
5553.366140152933
 20
1029.797820116365
 30
0.0
 10
5553.453870191453
 20
1029.812454037753
 30
0.0
 10
5553.529204931581
 20
1029.825202766056
 30
0.0
 10
5553.592081646491
 20
1029.836045588198
 30
0.0
 10
5553.642681343806
 20
1029.845007657719
 30
0.0
 10
5553.679359760145
 20
1029.851726688271
 30
0.0
 10
5553.704101664065
 20
1029.85656396258
 30
0.0
 10
5553.717491867971
 20
1029.859318059912
 30
0.0
 10
5553.72620918511
 20
1029.861432019802
 30
0.0
 10
5553.7299178513
 20
1029.86278449331
 30
0.0
 10
5553.732230117093
 20
1029.863627728605
 30
0.0
 11
5550.872219013697
 21
1029.40458212306
 31
0.0
 11
5551.133249587581
 21
1029.444761612518
 31
0.0
 11
5551.399764797886
 21
1029.48596158435
 31
0.0
 11
5551.668207767534
 21
1029.527644501515
 31
0.0
 11
5551.935021619451
 21
1029.569272826977
 31
0.0
 11
5552.14447945098
 21
1029.602107162403
 31
0.0
 11
5552.347963370581
 21
1029.634148570389
 31
0.0
 11
5552.543382649214
 21
1029.665068735194
 31
0.0
 11
5552.728646557842
 21
1029.694539341078
 31
0.0
 11
5552.901664367428
 21
1029.722232072301
 31
0.0
 11
5553.035397368864
 21
1029.74377975015
 31
0.0
 11
5553.158375749632
 21
1029.76373148162
 31
0.0
 11
5553.270127942086
 21
1029.782005403871
 31
0.0
 11
5553.370182378585
 21
1029.798519654064
 31
0.0
 11
5553.458067491483
 21
1029.813192369359
 31
0.0
 11
5553.533311713137
 21
1029.825941686916
 31
0.0
 11
5553.596178835891
 21
1029.836806353134
 31
0.0
 11
5553.646686919902
 21
1029.845775077591
 31
0.0
 11
5553.685099025809
 21
1029.852879613924
 31
0.0
 11
5553.706201514783
 21
1029.857016496341
 31
0.0
 11
5553.720927530647
 21
1029.860163434402
 31
0.0
 11
5553.72524409885
 21
1029.861262223705
 31
0.0
 11
5553.732230117093
 21
1029.863627728605
 31
0.0
  0
SPLINE
  5
232
330
1F
100
AcDbEntity
  8
0
  6
Continuous
 62
     2
100
AcDbSpline
210
0.0
220
0.0
230
1.0
 70
     8
 71
     3
 72
    34
 73
    30
 74
    28
 42
0.0000000001
 43
0.0000000001
 44
0.00000001
 40
0.0
 40
0.0
 40
0.0
 40
0.0
 40
0.0224153007406431
 40
0.084204403768403
 40
0.1869385984071648
 40
0.3315608622297369
 40
0.5189369164610619
 40
0.7325408345389648
 40
0.9538120549898714
 40
1.174146531976952
 40
1.384935784869388
 40
1.577568710754243
 40
1.743432557440619
 40
1.873913484932212
 40
1.960396912520114
 40
2.14620800011482
 40
2.373413950310297
 40
2.640677163210505
 40
2.946660994544597
 40
3.290029826092231
 40
3.66944913630481
 40
4.083585574405068
 40
4.300416215905943
 40
4.567501600030343
 40
4.881831691236953
 40
5.24039745495217
 40
5.640190990840907
 40
6.078205676690421
 40
6.551436330828821
 40
6.551436330828821
 40
6.551436330828821
 40
6.551436330828821
 10
5550.245036579258
 20
991.8495158028
 30
0.0
 10
5550.248582121425
 20
991.8561279282267
 30
0.0
 10
5550.261901160399
 20
991.880966768696
 30
0.0
 10
5550.270040048251
 20
991.943887403203
 30
0.0
 10
5550.289596023521
 20
992.0444743847964
 30
0.0
 10
5550.309379350581
 20
992.1883457799279
 30
0.0
 10
5550.333788848149
 20
992.3684471265747
 30
0.0
 10
5550.359238469608
 20
992.574341031941
 30
0.0
 10
5550.384881611378
 20
992.7912221936367
 30
0.0
 10
5550.409358572279
 20
993.0073092575699
 30
0.0
 10
5550.432033229941
 20
993.213987535876
 30
0.0
 10
5550.452189740428
 20
993.4026764055948
 30
0.0
 10
5550.469136559626
 20
993.5647856398571
 30
0.0
 10
5550.482176459483
 20
993.6917271088485
 30
0.0
 10
5550.495722903086
 20
993.8253004459285
 30
0.0
 10
5550.512322911445
 20
993.9909711226023
 30
0.0
 10
5550.534454081954
 20
994.2166488404303
 30
0.0
 10
5550.559896749332
 20
994.4822509243382
 30
0.0
 10
5550.58828614646
 20
994.7864681062756
 30
0.0
 10
5550.619265261606
 20
995.1279903383661
 30
0.0
 10
5550.652476153291
 20
995.5055076846909
 30
0.0
 10
5550.681032354519
 20
995.8410908657681
 30
0.0
 10
5550.705779938717
 20
996.1394170646024
 30
0.0
 10
5550.727332941315
 20
996.4046249175049
 30
0.0
 10
5550.752092973558
 20
996.716972380234
 30
0.0
 10
5550.779566212215
 20
997.0734788562204
 30
0.0
 10
5550.809226369438
 20
997.4711659755754
 30
0.0
 10
5550.840678606735
 20
997.9070464841147
 30
0.0
 10
5550.861450049724
 20
998.2100841025881
 30
0.0
 10
5550.872237137592
 20
998.367458504547
 30
0.0
 11
5550.245036579258
 21
991.8495158028
 31
0.0
 11
5550.254989167505
 21
991.8696004161765
 31
0.0
 11
5550.268715017844
 21
991.9298457005186
 31
0.0
 11
5550.286188843666
 21
992.0310829474151
 31
0.0
 11
5550.307385358372
 21
992.1741434484541
 31
0.0
 11
5550.332279275351
 21
992.359858495224
 31
0.0
 11
5550.358740019225
 21
992.57181712999
 31
0.0
 11
5550.384738808828
 21
992.7915556471849
 31
0.0
 11
5550.409585300593
 21
993.0104847078327
 31
0.0
 11
5550.432589150958
 21
993.2200149729576
 31
0.0
 11
5550.453060016353
 21
993.4115571035842
 31
0.0
 11
5550.470307553222
 21
993.576521760737
 31
0.0
 11
5550.48364141799
 21
993.7063196054395
 31
0.0
 11
5550.492371267097
 21
993.7923612987162
 31
0.0
 11
5550.510888645238
 21
993.9772473906212
 31
0.0
 11
5550.533072925115
 21
994.2033677159583
 31
0.0
 11
5550.558564651434
 21
994.469412443136
 31
0.0
 11
5550.587004368901
 21
994.7740717405622
 31
0.0
 11
5550.61803262222
 21
995.1160357766455
 31
0.0
 11
5550.651289956097
 21
995.4939947197936
 31
0.0
 11
5550.686416915238
 21
995.9066387384148
 31
0.0
 11
5550.704341003983
 21
996.1227272715125
 31
0.0
 11
5550.725976402811
 21
996.3889349196567
 31
0.0
 11
5550.750820657134
 21
996.7022816433752
 31
0.0
 11
5550.778371312363
 21
997.0597874031961
 31
0.0
 11
5550.808125913905
 21
997.4584721596459
 31
0.0
 11
5550.839582007178
 21
997.8953558732538
 31
0.0
 11
5550.872237137592
 21
998.367458504547
 31
0.0
  0
SPLINE
  5
233
330
1F
100
AcDbEntity
  8
0
  6
Continuous
 62
     2
100
AcDbSpline
210
0.0
220
0.0
230
1.0
 70
     8
 71
     3
 72
    27
 73
    23
 74
    21
 42
0.0000000001
 43
0.0000000001
 44
0.00000001
 40
0.0
 40
0.0
 40
0.0
 40
0.0
 40
0.0051800384668686
 40
0.0118388707623526
 40
0.0268973166499855
 40
0.0484013885657609
 40
0.0874648308190696
 40
0.1387628310673892
 40
0.2025616261982447
 40
0.2956907945559981
 40
0.4070923490697517
 40
0.5359398753128229
 40
0.681406773421277
 40
0.8426663503132422
 40
1.017885800347624
 40
1.20547848723566
 40
1.403328221759663
 40
1.609318784586067
 40
1.8213339388218
 40
2.181925864862493
 40
2.543262918741389
 40
2.896818626925235
 40
2.896818626925235
 40
2.896818626925235
 40
2.896818626925235
 10
5553.732240839408
 20
997.9084205083128
 30
0.0
 10
5553.730636554417
 20
997.9090658755026
 30
0.0
 10
5553.726969994257
 20
997.9105408488647
 30
0.0
 10
5553.718197686291
 20
997.9125038969954
 30
0.0
 10
5553.704124900182
 20
997.9155232718349
 30
0.0
 10
5553.679363276422
 20
997.9202977724061
 30
0.0
 10
5553.642695521423
 20
997.9270500014309
 30
0.0
 10
5553.59209155323
 20
997.9359978835274
 30
0.0
 10
5553.52369401265
 20
997.9477982358749
 30
0.0
 10
5553.435498392734
 20
997.9626879337161
 30
0.0
 10
5553.325875365143
 20
997.980903006827
 30
0.0
 10
5553.199000999551
 20
998.0017280092609
 30
0.0
 10
5553.055690133009
 20
998.0250202601353
 30
0.0
 10
5552.89708833546
 20
998.0505833250597
 30
0.0
 10
5552.724591967542
 20
998.078184216854
 30
0.0
 10
5552.540024327785
 20
998.1075381705939
 30
0.0
 10
5552.345301688365
 20
998.1383438114162
 30
0.0
 10
5552.14251469873
 20
998.1702724313859
 30
0.0
 10
5551.886112972027
 20
998.2104633290517
 30
0.0
 10
5551.578511428032
 20
998.2584025505683
 30
0.0
 10
5551.224245057422
 20
998.3133022574095
 30
0.0
 10
5550.988718571041
 20
998.3495378927041
 30
0.0
 10
5550.872237137592
 20
998.367458504547
 30
0.0
 11
5553.732240839408
 21
997.9084205083128
 31
0.0
 11
5553.727390733584
 21
997.9102396487717
 31
0.0
 11
5553.720938249466
 21
997.9118844880477
 31
0.0
 11
5553.706212269461
 21
997.9150312809294
 31
0.0
 11
5553.685109841644
 21
997.9191680247202
 31
0.0
 11
5553.646697856626
 21
997.9262723844853
 31
0.0
 11
5553.59618993776
 21
997.9352409385101
 31
0.0
 11
5553.533323023303
 21
997.9461054369702
 31
0.0
 11
5553.44149826436
 21
997.9616378432281
 31
0.0
 11
5553.331606489037
 21
997.979916356963
 31
0.0
 11
5553.204462559411
 21
998.0007995123328
 31
0.0
 11
5553.060881337566
 21
998.0241458434955
 31
0.0
 11
5552.901677685582
 21
998.0498138846083
 31
0.0
 11
5552.728660386768
 21
998.0775063020048
 31
0.0
 11
5552.543397005349
 21
998.1069765527532
 31
0.0
 11
5552.347978261101
 21
998.1378963174317
 31
0.0
 11
5552.144494873799
 21
998.1699372766178
 31
0.0
 11
5551.935037563226
 21
998.20277111089
 31
0.0
 11
5551.578748907224
 21
998.2583132636206
 31
0.0
 11
5551.221671734919
 21
998.3136337799325
 31
0.0
 11
5550.872237137592
 21
998.367458504547
 31
0.0
  0
MTEXT
  5
235
330
1F
100
AcDbEntity
  8
Symbole_ISO_
 62
     7
100
AcDbMText
 10
5349.004913495524
 20
745.9672728815447
 30
0.0
 40
6.9999998807907
 41
0.0
 71
     5
 72
     1
  1
G. Merafina
  7
CONVERTER_12
 73
     1
 44
0.75727272727273
  0
MTEXT
  5
236
330
1F
100
AcDbEntity
  8
Symbole_ISO_
 62
     7
100
AcDbMText
 10
5349.004913495524
 20
761.6672728815447
 30
0.0
 40
6.9999998807907
 41
0.0
 71
     5
 72
     1
  1
31.10.2012
  7
CONVERTER_12
 73
     1
 44
0.75727272727273
  0
MTEXT
  5
237
330
1F
100
AcDbEntity
  8
Symbole_ISO_
 62
     7
100
AcDbMText
 10
5609.079913495525
 20
762.9172728815447
 30
0.0
 40
5.0
 41
0.0
 71
     5
 72
     1
  1
Scale
  7
CONVERTER_11
 73
     1
 44
0.75727272727273
  0
MTEXT
  5
238
330
1F
100
AcDbEntity
  8
Symbole_ISO_
 62
     7
100
AcDbMText
 10
5319.204913495525
 20
746.3672728815447
 30
0.0
 40
5.0
 41
0.0
 71
     4
 72
     1
  1
Sign.
  7
CONVERTER_11
 73
     1
 44
0.75727272727273
  0
MTEXT
  5
239
330
1F
100
AcDbEntity
  8
Symbole_ISO_
 62
     7
100
AcDbMText
 10
5319.204913495525
 20
761.6672728815447
 30
0.0
 40
5.0
 41
0.0
 71
     4
 72
     1
  1
Date
  7
CONVERTER_11
 73
     1
 44
0.75727272727273
  0
TEXT
  5
23B
330
1F
100
AcDbEntity
  8
Symbole_ISO_
 62
     7
100
AcDbText
 10
5378.004913495524
 20
743.3672728517427
 30
0.0
 40
8.00000011920928
  1
Dust cover for transportation for 24 poles housings
 41
0.89999994635582
  7
CONVERTER_13
100
AcDbText
  0
TEXT
  5
23C
330
1F
100
AcDbEntity
  8
Symbole_ISO_
 62
     7
100
AcDbText
 10
5603.710370637198
 20
746.117272881545
 30
0.0
 40
10.0
  1
1:2
 41
0.67499998211861
  7
CONVERTER_11
100
AcDbText
  0
TEXT
  5
23D
330
1F
100
AcDbEntity
  8
Symbole_ISO_
 62
     7
100
AcDbText
 10
5377.500701052776
 20
757.694753130188
 30
0.0
 40
8.00000011920928
  1
CGCP 24 FX
 41
0.89999994635582
  7
CONVERTER_13
100
AcDbText
  0
MTEXT
  5
23F
330
1F
100
AcDbEntity
  8
1
 62
     4
100
AcDbMText
 10
5343.232688218588
 20
798.69250149546
 30
0.0
 40
14.0
 41
0.0
 71
     2
 72
     1
  1
 
  7
CONVERTER_14
 73
     1
 44
1.32052821128451
  0
MTEXT
  5
240
330
1F
100
AcDbEntity
  8
1
 62
     4
100
AcDbMText
 10
5384.224619776765
 20
825.0441315662415
 30
0.0
 40
14.0
 41
0.0
 71
     2
 72
     1
  1
 
  7
CONVERTER_14
 73
     1
 44
1.32052821128451
  0
DIMENSION
  5
24D
330
1F
100
AcDbEntity
  8
1
100
AcDbDimension
  2
*D2
 10
5252.49233485973
 20
969.0859895201357
 30
0.0
 11
5350.233649295602
 21
969.0859895201357
 31
0.0
 70
    32
  1
<>
 71
     5
 42
-1.0
 53
0.00013888888889
  3
ME10_DIM_10
100
AcDbAlignedDimension
 13
5447.974963731473
 23
1035.984218393908
 33
0.0
 14
5252.49233485973
 24
991.7859895201358
 34
0.0
100
AcDbRotatedDimension
  0
DIMENSION
  5
259
330
1F
100
AcDbEntity
  8
1
100
AcDbDimension
  2
*D3
 10
5462.717899106468
 20
858.9450183928494
 30
0.0
 11
5462.717899106468
 21
875.945018411757
 31
0.0
 70
    32
  1
<>
 71
     5
 42
-1.0
 53
90.0
  3
ME10_DIM_11
100
AcDbAlignedDimension
 13
5439.992963731473
 23
892.9450184306645
 33
0.0
 14
5418.426883275131
 24
858.9450183928494
 34
0.0
 50
90.0
100
AcDbRotatedDimension
  0
DIMENSION
  5
265
330
1F
100
AcDbEntity
  8
1
100
AcDbDimension
  2
*D4
 10
5505.699298947227
 20
983.785989520138
 30
0.0
 11
5505.699298947227
 21
1013.885103957024
 31
0.0
 70
    32
  1
<>
 71
     5
 42
-1.0
 53
90.0
  3
ME10_DIM_12
100
AcDbAlignedDimension
 13
5520.699298947227
 23
1043.98421839391
 33
0.0
 14
5520.699298947227
 24
983.7859895201378
 34
0.0
 50
90.0
100
AcDbRotatedDimension
  0
HATCH
  5
266
330
1F
100
AcDbEntity
  8
1
  6
Continuous
 62
     7
100
AcDbHatch
 10
0.0
 20
0.0
 30
0.0
210
0.0
220
0.0
230
1.0
  2
SOLID
 70
     1
 71
     1
 91
        1
 92
        1
 93
       14
 72
     2
 10
5653.382630262954
 20
758.5791780434054
 40
0.6666666666669129
 50
60.01836063122456
 51
179.9999999999511
 73
     1
 72
     1
 10
5652.715963596287
 20
758.5791780434059
 11
5652.715963596287
 21
748.8058249475135
 72
     2
 10
5653.382630262954
 20
748.8058249475141
 40
0.666666666666913
 50
180.0000000000488
 51
299.9816393687755
 73
     1
 72
     1
 10
5653.71577856528
 20
748.2283678901478
 11
5656.454684026472
 21
749.8085056562207
 72
     2
 10
5656.121535724147
 20
750.3859627135868
 40
0.6666666666661737
 50
299.9816393687224
 51
479.9816393688096
 73
     1
 72
     1
 10
5655.788387421821
 20
750.9634197709523
 11
5654.049296929619
 21
749.9600983331449
 72
     1
 10
5654.049296929619
 20
749.9600983331449
 11
5654.049296929619
 21
753.0258348287929
 72
     1
 10
5654.049296929619
 20
753.0258348287929
 11
5656.121535724147
 21
753.0258348287929
 72
     2
 10
5656.121535724147
 20
753.6925014954597
 40
0.6666666666667993
 50
270.0
 51
450.0
 73
     1
 72
     1
 10
5656.121535724147
 20
754.3591681621265
 11
5654.049296929619
 21
754.3591681621265
 72
     1
 10
5654.049296929619
 20
754.3591681621265
 11
5654.049296929619
 21
757.4249046577745
 72
     1
 10
5654.049296929619
 20
757.4249046577745
 11
5655.788387421821
 21
756.4215832199671
 72
     2
 10
5656.121535724147
 20
756.9990402773327
 40
0.6666666666661736
 50
240.0183606311903
 51
420.0183606312776
 73
     1
 72
     1
 10
5656.454684026472
 20
757.5764973346987
 11
5653.71577856528
 21
759.1566351007717
 97
       14
330
197
330
91
330
198
330
90
330
1A3
330
8F
330
8E
330
8D
330
1A2
330
8C
330
8B
330
8A
330
1A1
330
89
 75
     0
 76
     1
 98
        1
 10
0.0
 20
0.0
  0
HATCH
  5
267
330
1F
100
AcDbEntity
  8
Schraffur
  6
Continuous
 62
     7
100
AcDbHatch
 10
0.0
 20
0.0
 30
0.0
210
0.0
220
0.0
230
1.0
  2
SOLID
 70
     1
 71
     1
 91
        1
 92
        1
 93
        4
 72
     1
 10
5640.715965613892
 20
756.9990402773329
 11
5640.715965613892
 21
750.3859627135865
 72
     2
 10
5640.049298947226
 20
750.3859627135865
 40
0.6666666666660603
 50
0.0
 51
180.0
 73
     0
 72
     1
 10
5639.38263228056
 20
750.3859627135865
 11
5639.38263228056
 21
756.9990402773329
 72
     2
 10
5640.049298947226
 20
756.9990402773329
 40
0.6666666666660603
 50
180.0
 51
360.0
 73
     0
 97
        4
330
AC
330
1B1
330
AD
330
1B2
 75
     0
 76
     1
 98
        1
 10
0.0
 20
0.0
  0
HATCH
  5
268
330
1F
100
AcDbEntity
  8
Schraffur
  6
Continuous
 62
     7
100
AcDbHatch
 10
0.0
 20
0.0
 30
0.0
210
0.0
220
0.0
230
1.0
  2
SOLID
 70
     1
 71
     1
 91
        1
 92
        1
 93
        7
 72
     1
 10
5643.382634298167
 20
749.2325426275213
 11
5643.382634298167
 21
758.5791780434059
 72
     2
 10
5642.715967631499
 20
758.5791780434059
 40
0.6666666666687888
 50
0.0
 51
180.0
 73
     1
 72
     1
 10
5642.049300964833
 20
758.5791780434059
 11
5642.049300964833
 21
749.2325451711837
 72
     2
 10
5643.382638702287
 20
749.2325451711837
 40
1.333337737454713
 50
180.0
 51
240.0183606311383
 73
     1
 72
     1
 10
5642.716339896795
 20
748.0776272416643
 11
5647.05161030614
 21
745.576509697812
 72
     2
 10
5647.384758608467
 20
746.1539667551777
 40
0.6666666666668554
 50
240.0183606311324
 51
420.0183606312001
 73
     1
 72
     1
 10
5647.717906910792
 20
746.7314238125435
 11
5643.382634298167
 21
749.2325426275213
 97
        7
330
1B0
330
AA
330
1AF
330
A9
330
1AE
330
A8
330
AB
 75
     0
 76
     1
 98
        1
 10
0.0
 20
0.0
  0
HATCH
  5
269
330
1F
100
AcDbEntity
  8
Schraffur
  6
Continuous
 62
     7
100
AcDbHatch
 10
0.0
 20
0.0
 30
0.0
210
0.0
220
0.0
230
1.0
  2
SOLID
 70
     1
 71
     1
 91
        1
 92
        1
 93
       13
 72
     2
 10
5645.245908864696
 20
760.1966174288215
 40
0.5299324249509441
 50
29.9999999999662
 51
180.0
 73
     1
 72
     1
 10
5644.715976439744
 20
760.1966174288215
 11
5644.715976439746
 21
750.3859627135865
 72
     2
 10
5645.382643106412
 20
750.3859627135865
 40
0.6666666666660603
 50
180.0
 51
360.0
 73
     1
 72
     1
 10
5646.049309773078
 20
750.3859627135865
 11
5646.049309773078
 21
757.1982933399529
 72
     1
 10
5646.049309773078
 20
757.1982933399529
 11
5647.760623812632
 21
754.2342104757415
 72
     2
 10
5648.049298947226
 20
754.4008771424081
 40
0.3333333333326854
 50
210.0000000000568
 51
329.9999999999432
 73
     1
 72
     1
 10
5648.33797408182
 20
754.2342104757415
 11
5650.049288121374
 21
757.1982933399529
 72
     1
 10
5650.049288121374
 20
757.1982933399529
 11
5650.049288121374
 21
747.2673583273709
 72
     2
 10
5650.71595478804
 20
747.2673583273709
 40
0.6666666666660603
 50
180.0
 51
360.0
 73
     1
 72
     1
 10
5651.382621454708
 20
747.2673583273709
 11
5651.382621454708
 21
760.1966174288214
 72
     2
 10
5650.852689029756
 20
760.1966174288214
 40
0.5299324249517667
 50
0.0
 51
149.999999999974
 73
     1
 72
     1
 10
5650.39375408746
 20
760.4615836412967
 11
5648.049298947226
 21
756.4008682223451
 72
     1
 10
5648.049298947226
 20
756.4008682223451
 11
5645.704843806992
 21
760.4615836412967
 97
       13
330
A6
330
1AD
330
A5
330
1AC
330
A4
330
A3
330
1AB
330
A2
330
A1
330
1AA
330
A0
330
1A9
330
A7
 75
     0
 76
     1
 98
        1
 10
0.0
 20
0.0
  0
ENDSEC
  0
SECTION
  2
OBJECTS
  0
DICTIONARY
  5
C
330
0
100
AcDbDictionary
281
     1
  3
ACAD_GROUP
350
D
  3
ACAD_LAYOUT
350
1A
  3
ACAD_MATERIAL
350
3B
  3
ACAD_MLEADERSTYLE
350
26C
  3
ACAD_MLINESTYLE
350
17
  3
ACAD_PLOTSETTINGS
350
19
  3
ACAD_PLOTSTYLENAME
350
E
  3
ACAD_SCALELIST
350
4D
  3
ACAD_VISUALSTYLE
350
2A
  3
AcDbVariableDictionary
350
26A
  0
DICTIONARY
  5
D
102
{ACAD_REACTORS
330
C
102
}
330
C
100
AcDbDictionary
281
     1
  0
DICTIONARY
  5
1A
102
{ACAD_REACTORS
330
C
102
}
330
C
100
AcDbDictionary
281
     1
  3
Layout1
350
1E
  3
Layout2
350
26
  3
Model
350
22
  0
DICTIONARY
  5
3B
102
{ACAD_REACTORS
330
C
102
}
330
C
100
AcDbDictionary
281
     1
  3
ByBlock
350
3D
  3
ByLayer
350
3C
  3
Global
350
3E
  0
DICTIONARY
  5
26C
102
{ACAD_REACTORS
330
C
102
}
330
C
100
AcDbDictionary
281
     1
  0
DICTIONARY
  5
17
102
{ACAD_REACTORS
330
C
102
}
330
C
100
AcDbDictionary
281
     1
  3
Standard
350
18
  0
DICTIONARY
  5
19
102
{ACAD_REACTORS
330
C
102
}
330
C
100
AcDbDictionary
281
     1
  0
ACDBDICTIONARYWDFLT
  5
E
102
{ACAD_REACTORS
330
C
102
}
330
C
100
AcDbDictionary
281
     1
  3
Normal
350
F
100
AcDbDictionaryWithDefault
340
F
  0
DICTIONARY
  5
4D
102
{ACAD_REACTORS
330
C
102
}
330
C
100
AcDbDictionary
281
     1
  3
A0
350
4E
  3
A1
350
4F
  3
A2
350
50
  3
A3
350
51
  3
A4
350
52
  3
A5
350
53
  3
A6
350
54
  3
A7
350
55
  3
A8
350
56
  3
A9
350
57
  3
B0
350
58
  3
B1
350
59
  3
B2
350
5A
  3
B3
350
5B
  3
B4
350
5C
  3
B5
350
5D
  3
B6
350
5E
  3
B7
350
5F
  3
B8
350
60
  3
B9
350
61
  3
C0
350
62
  3
C1
350
63
  3
C2
350
64
  3
C3
350
65
  3
C4
350
66
  3
C5
350
67
  3
C6
350
68
  3
C7
350
69
  3
C8
350
6A
  3
C9
350
6B
  3
D0
350
6C
  3
D1
350
6D
  3
D2
350
6E
  0
DICTIONARY
  5
2A
102
{ACAD_REACTORS
330
C
102
}
330
C
100
AcDbDictionary
281
     1
  3
2dWireframe
350
2F
  3
3D Hidden
350
31
  3
3dWireframe
350
30
  3
Basic
350
32
  3
Brighten
350
36
  3
ColorChange
350
3A
  3
Conceptual
350
34
  3
Dim
350
35
  3
Facepattern
350
39
  3
Flat
350
2B
  3
FlatWithEdges
350
2C
  3
Gouraud
350
2D
  3
GouraudWithEdges
350
2E
  3
Linepattern
350
38
  3
Realistic
350
33
  3
Thicken
350
37
  0
DICTIONARY
  5
26A
102
{ACAD_REACTORS
330
C
102
}
330
C
100
AcDbDictionary
281
     1
  3
CANNOSCALE
350
26D
  3
DIMASSOC
350
26E
  3
HIDETEXT
350
26F
  0
LAYOUT
  5
1E
102
{ACAD_REACTORS
330
1A
102
}
330
1A
100
AcDbPlotSettings
  1

  2
none_device
  4

  6

 40
0.0
 41
0.0
 42
0.0
 43
0.0
 44
0.0
 45
0.0
 46
0.0
 47
0.0
 48
0.0
 49
0.0
140
0.0
141
0.0
142
1.0
143
1.0
 70
   688
 72
     0
 73
     0
 74
     5
  7

 75
    16
147
1.0
148
0.0
149
0.0
100
AcDbLayout
  1
Layout1
 70
     1
 71
     1
 10
0.0
 20
0.0
 11
12.0
 21
9.0
 12
0.0
 22
0.0
 32
0.0
 14
1.00000000000000E+20
 24
1.00000000000000E+20
 34
1.00000000000000E+20
 15
-1.00000000000000E+20
 25
-1.00000000000000E+20
 35
-1.00000000000000E+20
146
0.0
 13
0.0
 23
0.0
 33
0.0
 16
1.0
 26
0.0
 36
0.0
 17
0.0
 27
1.0
 37
0.0
 76
     0
330
1B
  0
LAYOUT
  5
26
102
{ACAD_REACTORS
330
1A
102
}
330
1A
100
AcDbPlotSettings
  1

  2
none_device
  4

  6

 40
0.0
 41
0.0
 42
0.0
 43
0.0
 44
0.0
 45
0.0
 46
0.0
 47
0.0
 48
0.0
 49
0.0
140
0.0
141
0.0
142
1.0
143
1.0
 70
   688
 72
     0
 73
     0
 74
     5
  7

 75
    16
147
1.0
148
0.0
149
0.0
100
AcDbLayout
  1
Layout2
 70
     1
 71
     2
 10
0.0
 20
0.0
 11
0.0
 21
0.0
 12
0.0
 22
0.0
 32
0.0
 14
0.0
 24
0.0
 34
0.0
 15
0.0
 25
0.0
 35
0.0
146
0.0
 13
0.0
 23
0.0
 33
0.0
 16
1.0
 26
0.0
 36
0.0
 17
0.0
 27
1.0
 37
0.0
 76
     0
330
23
  0
LAYOUT
  5
22
102
{ACAD_REACTORS
330
1A
102
}
330
1A
100
AcDbPlotSettings
  1

  2
none_device
  4

  6

 40
0.0
 41
0.0
 42
0.0
 43
0.0
 44
0.0
 45
0.0
 46
0.0
 47
0.0
 48
0.0
 49
0.0
140
0.0
141
0.0
142
1.0
143
1.0
 70
  1712
 72
     0
 73
     0
 74
     0
  7

 75
     0
147
1.0
148
0.0
149
0.0
100
AcDbLayout
  1
Model
 70
     1
 71
     0
 10
0.0
 20
0.0
 11
12.0
 21
9.0
 12
0.0
 22
0.0
 32
0.0
 14
5116.199298947227
 24
738.1925014954597
 34
0.0
 15
5671.199298947227
 25
1139.19250149546
 35
0.0
146
0.0
 13
0.0
 23
0.0
 33
0.0
 16
1.0
 26
0.0
 36
0.0
 17
0.0
 27
1.0
 37
0.0
 76
     0
330
1F
331
29
  0
MATERIAL
  5
3D
102
{ACAD_REACTORS
330
3B
102
}
102
{ACAD_XDICTIONARY
360
292
102
}
330
3B
100
AcDbMaterial
  1
ByBlock
  0
MATERIAL
  5
3C
102
{ACAD_REACTORS
330
3B
102
}
102
{ACAD_XDICTIONARY
360
290
102
}
330
3B
100
AcDbMaterial
  1
ByLayer
  0
MATERIAL
  5
3E
102
{ACAD_REACTORS
330
3B
102
}
102
{ACAD_XDICTIONARY
360
294
102
}
330
3B
100
AcDbMaterial
  1
Global
  0
MLINESTYLE
  5
18
102
{ACAD_REACTORS
330
17
102
}
330
17
100
AcDbMlineStyle
  2
Standard
 70
     0
  3

 62
   256
 51
90.0
 52
90.0
 71
     2
 49
0.5
 62
   256
  6
BYLAYER
 49
-0.5
 62
   256
  6
BYLAYER
  0
ACDBPLACEHOLDER
  5
F
102
{ACAD_REACTORS
330
E
102
}
330
E
  0
SCALE
  5
4E
102
{ACAD_REACTORS
330
4D
102
}
330
4D
100
AcDbScale
 70
     0
300
1:1
140
1.0
141
1.0
290
     1
  0
SCALE
  5
4F
102
{ACAD_REACTORS
330
4D
102
}
330
4D
100
AcDbScale
 70
     0
300
1:2
140
1.0
141
2.0
290
     0
  0
SCALE
  5
50
102
{ACAD_REACTORS
330
4D
102
}
330
4D
100
AcDbScale
 70
     0
300
1:4
140
1.0
141
4.0
290
     0
  0
SCALE
  5
51
102
{ACAD_REACTORS
330
4D
102
}
330
4D
100
AcDbScale
 70
     0
300
1:5
140
1.0
141
5.0
290
     0
  0
SCALE
  5
52
102
{ACAD_REACTORS
330
4D
102
}
330
4D
100
AcDbScale
 70
     0
300
1:8
140
1.0
141
8.0
290
     0
  0
SCALE
  5
53
102
{ACAD_REACTORS
330
4D
102
}
330
4D
100
AcDbScale
 70
     0
300
1:10
140
1.0
141
10.0
290
     0
  0
SCALE
  5
54
102
{ACAD_REACTORS
330
4D
102
}
330
4D
100
AcDbScale
 70
     0
300
1:16
140
1.0
141
16.0
290
     0
  0
SCALE
  5
55
102
{ACAD_REACTORS
330
4D
102
}
330
4D
100
AcDbScale
 70
     0
300
1:20
140
1.0
141
20.0
290
     0
  0
SCALE
  5
56
102
{ACAD_REACTORS
330
4D
102
}
330
4D
100
AcDbScale
 70
     0
300
1:30
140
1.0
141
30.0
290
     0
  0
SCALE
  5
57
102
{ACAD_REACTORS
330
4D
102
}
330
4D
100
AcDbScale
 70
     0
300
1:40
140
1.0
141
40.0
290
     0
  0
SCALE
  5
58
102
{ACAD_REACTORS
330
4D
102
}
330
4D
100
AcDbScale
 70
     0
300
1:50
140
1.0
141
50.0
290
     0
  0
SCALE
  5
59
102
{ACAD_REACTORS
330
4D
102
}
330
4D
100
AcDbScale
 70
     0
300
1:100
140
1.0
141
100.0
290
     0
  0
SCALE
  5
5A
102
{ACAD_REACTORS
330
4D
102
}
330
4D
100
AcDbScale
 70
     0
300
2:1
140
2.0
141
1.0
290
     0
  0
SCALE
  5
5B
102
{ACAD_REACTORS
330
4D
102
}
330
4D
100
AcDbScale
 70
     0
300
4:1
140
4.0
141
1.0
290
     0
  0
SCALE
  5
5C
102
{ACAD_REACTORS
330
4D
102
}
330
4D
100
AcDbScale
 70
     0
300
8:1
140
8.0
141
1.0
290
     0
  0
SCALE
  5
5D
102
{ACAD_REACTORS
330
4D
102
}
330
4D
100
AcDbScale
 70
     0
300
10:1
140
10.0
141
1.0
290
     0
  0
SCALE
  5
5E
102
{ACAD_REACTORS
330
4D
102
}
330
4D
100
AcDbScale
 70
     0
300
100:1
140
100.0
141
1.0
290
     0
  0
SCALE
  5
5F
102
{ACAD_REACTORS
330
4D
102
}
330
4D
100
AcDbScale
 70
     0
300
1/128" = 1'-0"
140
0.0078125
141
12.0
290
     0
  0
SCALE
  5
60
102
{ACAD_REACTORS
330
4D
102
}
330
4D
100
AcDbScale
 70
     0
300
1/64" = 1'-0"
140
0.015625
141
12.0
290
     0
  0
SCALE
  5
61
102
{ACAD_REACTORS
330
4D
102
}
330
4D
100
AcDbScale
 70
     0
300
1/32" = 1'-0"
140
0.03125
141
12.0
290
     0
  0
SCALE
  5
62
102
{ACAD_REACTORS
330
4D
102
}
330
4D
100
AcDbScale
 70
     0
300
1/16" = 1'-0"
140
0.0625
141
12.0
290
     0
  0
SCALE
  5
63
102
{ACAD_REACTORS
330
4D
102
}
330
4D
100
AcDbScale
 70
     0
300
3/32" = 1'-0"
140
0.09375
141
12.0
290
     0
  0
SCALE
  5
64
102
{ACAD_REACTORS
330
4D
102
}
330
4D
100
AcDbScale
 70
     0
300
1/8" = 1'-0"
140
0.125
141
12.0
290
     0
  0
SCALE
  5
65
102
{ACAD_REACTORS
330
4D
102
}
330
4D
100
AcDbScale
 70
     0
300
3/16" = 1'-0"
140
0.1875
141
12.0
290
     0
  0
SCALE
  5
66
102
{ACAD_REACTORS
330
4D
102
}
330
4D
100
AcDbScale
 70
     0
300
1/4" = 1'-0"
140
0.25
141
12.0
290
     0
  0
SCALE
  5
67
102
{ACAD_REACTORS
330
4D
102
}
330
4D
100
AcDbScale
 70
     0
300
3/8" = 1'-0"
140
0.375
141
12.0
290
     0
  0
SCALE
  5
68
102
{ACAD_REACTORS
330
4D
102
}
330
4D
100
AcDbScale
 70
     0
300
1/2" = 1'-0"
140
0.5
141
12.0
290
     0
  0
SCALE
  5
69
102
{ACAD_REACTORS
330
4D
102
}
330
4D
100
AcDbScale
 70
     0
300
3/4" = 1'-0"
140
0.75
141
12.0
290
     0
  0
SCALE
  5
6A
102
{ACAD_REACTORS
330
4D
102
}
330
4D
100
AcDbScale
 70
     0
300
1" = 1'-0"
140
1.0
141
12.0
290
     0
  0
SCALE
  5
6B
102
{ACAD_REACTORS
330
4D
102
}
330
4D
100
AcDbScale
 70
     0
300
1-1/2" = 1'-0"
140
1.5
141
12.0
290
     0
  0
SCALE
  5
6C
102
{ACAD_REACTORS
330
4D
102
}
330
4D
100
AcDbScale
 70
     0
300
3" = 1'-0"
140
3.0
141
12.0
290
     0
  0
SCALE
  5
6D
102
{ACAD_REACTORS
330
4D
102
}
330
4D
100
AcDbScale
 70
     0
300
6" = 1'-0"
140
6.0
141
12.0
290
     0
  0
SCALE
  5
6E
102
{ACAD_REACTORS
330
4D
102
}
330
4D
100
AcDbScale
 70
     0
300
1'-0" = 1'-0"
140
12.0
141
12.0
290
     0
  0
VISUALSTYLE
  5
2F
102
{ACAD_REACTORS
330
2A
102
}
102
{ACAD_XDICTIONARY
360
278
102
}
330
2A
100
AcDbVisualStyle
  2
2dWireframe
 70
     4
 71
     0
 72
     2
 73
     0
 90
        0
 40
-0.6
 41
-30.0
 62
     5
 63
     7
 74
     1
 91
        4
 64
     7
 65
   257
 75
     1
175
     1
 42
1.0
 92
        0
 66
   257
 43
1.0
 76
     1
 77
     6
 78
     2
 67
     7
 79
     5
170
     0
171
     0
290
     0
174
     0
 93
        1
 44
0.0
173
     0
291
     0
 45
0.0
1001
ACAD
1000
AcDbSavedByObjectVersion
1070
     0
  0
VISUALSTYLE
  5
31
102
{ACAD_REACTORS
330
2A
102
}
102
{ACAD_XDICTIONARY
360
27C
102
}
330
2A
100
AcDbVisualStyle
  2
3D Hidden
 70
     6
 71
     1
 72
     2
 73
     2
 90
        0
 40
-0.6
 41
-30.0
 62
     5
 63
     7
 74
     2
 91
        2
 64
     7
 65
   257
 75
     2
175
     1
 42
40.0
 92
        0
 66
   257
 43
1.0
 76
     1
 77
     6
 78
     2
 67
     7
 79
     3
170
     0
171
     0
290
     0
174
     0
 93
        1
 44
0.0
173
     0
291
     0
 45
0.0
1001
ACAD
1000
AcDbSavedByObjectVersion
1070
     0
  0
VISUALSTYLE
  5
30
102
{ACAD_REACTORS
330
2A
102
}
102
{ACAD_XDICTIONARY
360
27A
102
}
330
2A
100
AcDbVisualStyle
  2
3dWireframe
 70
     5
 71
     0
 72
     2
 73
     0
 90
        0
 40
-0.6
 41
-30.0
 62
     5
 63
     7
 74
     1
 91
        4
 64
     7
 65
   257
 75
     1
175
     1
 42
1.0
 92
        0
 66
   257
 43
1.0
 76
     1
 77
     6
 78
     2
 67
     7
 79
     5
170
     0
171
     0
290
     0
174
     0
 93
        1
 44
0.0
173
     0
291
     0
 45
0.0
1001
ACAD
1000
AcDbSavedByObjectVersion
1070
     0
  0
VISUALSTYLE
  5
32
102
{ACAD_REACTORS
330
2A
102
}
102
{ACAD_XDICTIONARY
360
27E
102
}
330
2A
100
AcDbVisualStyle
  2
Basic
 70
     7
 71
     1
 72
     0
 73
     1
 90
        0
 40
-0.6
 41
-30.0
 62
     5
 63
     7
 74
     0
 91
        4
 64
     7
 65
   257
 75
     1
175
     1
 42
1.0
 92
        8
 66
     7
 43
1.0
 76
     1
 77
     6
 78
     2
 67
     7
 79
     5
170
     0
171
     0
290
     0
174
     0
 93
        1
 44
0.0
173
     0
291
     1
 45
0.0
1001
ACAD
1000
AcDbSavedByObjectVersion
1070
     0
  0
VISUALSTYLE
  5
36
102
{ACAD_REACTORS
330
2A
102
}
102
{ACAD_XDICTIONARY
360
286
102
}
330
2A
100
AcDbVisualStyle
  2
Brighten
 70
    12
 71
     2
 72
     2
 73
     0
 90
        0
 40
-0.6
 41
-30.0
 62
     5
 63
     7
 74
     1
 91
        4
 64
     7
 65
   257
 75
     1
175
     1
 42
1.0
 92
        8
 66
     7
 43
1.0
 76
     1
 77
     6
 78
     2
 67
     7
 79
     5
170
     0
171
     0
290
     0
174
     0
 93
        1
 44
50.0
173
     0
291
     1
 45
0.0
1001
ACAD
1000
AcDbSavedByObjectVersion
1070
     0
  0
VISUALSTYLE
  5
3A
102
{ACAD_REACTORS
330
2A
102
}
102
{ACAD_XDICTIONARY
360
28E
102
}
330
2A
100
AcDbVisualStyle
  2
ColorChange
 70
    16
 71
     2
 72
     2
 73
     3
 90
        0
 40
-0.6
 41
-30.0
 62
     5
 63
     8
 74
     1
 91
        4
 64
     7
 65
   257
 75
     1
175
     1
 42
1.0
 92
        8
 66
     8
 43
1.0
 76
     1
 77
     6
 78
     2
 67
     7
 79
     5
170
     0
171
     0
290
     0
174
     0
 93
        1
 44
0.0
173
     0
291
     1
 45
0.0
1001
ACAD
1000
AcDbSavedByObjectVersion
1070
     0
  0
VISUALSTYLE
  5
34
102
{ACAD_REACTORS
330
2A
102
}
102
{ACAD_XDICTIONARY
360
282
102
}
330
2A
100
AcDbVisualStyle
  2
Conceptual
 70
     9
 71
     3
 72
     2
 73
     0
 90
        0
 40
-0.6
 41
-30.0
 62
     5
 63
     7
 74
     2
 91
        2
 64
     7
 65
   257
 75
     1
175
     1
 42
40.0
 92
        8
 66
     7
 43
1.0
 76
     1
 77
     6
 78
     2
 67
     7
 79
     3
170
     0
171
     0
290
     0
174
     0
 93
        1
 44
0.0
173
     0
291
     0
 45
0.0
1001
ACAD
1000
AcDbSavedByObjectVersion
1070
     0
  0
VISUALSTYLE
  5
35
102
{ACAD_REACTORS
330
2A
102
}
102
{ACAD_XDICTIONARY
360
284
102
}
330
2A
100
AcDbVisualStyle
  2
Dim
 70
    11
 71
     2
 72
     2
 73
     0
 90
        0
 40
-0.6
 41
-30.0
 62
     5
 63
     7
 74
     1
 91
        4
 64
     7
 65
   257
 75
     1
175
     1
 42
1.0
 92
        8
 66
     7
 43
1.0
 76
     1
 77
     6
 78
     2
 67
     7
 79
     5
170
     0
171
     0
290
     0
174
     0
 93
        1
 44
-50.0
173
     0
291
     1
 45
0.0
1001
ACAD
1000
AcDbSavedByObjectVersion
1070
     0
  0
VISUALSTYLE
  5
39
102
{ACAD_REACTORS
330
2A
102
}
102
{ACAD_XDICTIONARY
360
28C
102
}
330
2A
100
AcDbVisualStyle
  2
Facepattern
 70
    15
 71
     2
 72
     2
 73
     0
 90
        0
 40
-0.6
 41
-30.0
 62
     5
 63
     7
 74
     1
 91
        4
 64
     7
 65
   257
 75
     1
175
     1
 42
1.0
 92
        8
 66
     7
 43
1.0
 76
     1
 77
     6
 78
     2
 67
     7
 79
     5
170
     0
171
     0
290
     0
174
     0
 93
        1
 44
0.0
173
     0
291
     1
 45
0.0
1001
ACAD
1000
AcDbSavedByObjectVersion
1070
     0
  0
VISUALSTYLE
  5
2B
102
{ACAD_REACTORS
330
2A
102
}
102
{ACAD_XDICTIONARY
360
270
102
}
330
2A
100
AcDbVisualStyle
  2
Flat
 70
     0
 71
     2
 72
     1
 73
     1
 90
        2
 40
-0.6
 41
30.0
 62
     5
 63
     7
 74
     0
 91
        4
 64
     7
 65
   257
 75
     1
175
     1
 42
1.0
 92
        8
 66
     7
 43
1.0
 76
     1
 77
     6
 78
     2
 67
     7
 79
     5
170
     0
171
     0
290
     0
174
     0
 93
       13
 44
0.0
173
     0
291
     1
 45
0.0
1001
ACAD
1000
AcDbSavedByObjectVersion
1070
     0
  0
VISUALSTYLE
  5
2C
102
{ACAD_REACTORS
330
2A
102
}
102
{ACAD_XDICTIONARY
360
272
102
}
330
2A
100
AcDbVisualStyle
  2
FlatWithEdges
 70
     1
 71
     2
 72
     1
 73
     1
 90
        2
 40
-0.6
 41
30.0
 62
     5
 63
     7
 74
     1
 91
        4
 64
     7
 65
   257
 75
     1
175
     1
 42
1.0
 92
        0
 66
   257
 43
1.0
 76
     1
 77
     6
 78
     2
 67
     7
 79
     5
170
     0
171
     0
290
     0
174
     0
 93
       13
 44
0.0
173
     0
291
     1
 45
0.0
1001
ACAD
1000
AcDbSavedByObjectVersion
1070
     0
  0
VISUALSTYLE
  5
2D
102
{ACAD_REACTORS
330
2A
102
}
102
{ACAD_XDICTIONARY
360
274
102
}
330
2A
100
AcDbVisualStyle
  2
Gouraud
 70
     2
 71
     2
 72
     2
 73
     1
 90
        2
 40
-0.6
 41
30.0
 62
     5
 63
     7
 74
     0
 91
        4
 64
     7
 65
   257
 75
     1
175
     1
 42
1.0
 92
        0
 66
     7
 43
1.0
 76
     1
 77
     6
 78
     2
 67
     7
 79
     5
170
     0
171
     0
290
     0
174
     0
 93
       13
 44
0.0
173
     0
291
     1
 45
0.0
1001
ACAD
1000
AcDbSavedByObjectVersion
1070
     0
  0
VISUALSTYLE
  5
2E
102
{ACAD_REACTORS
330
2A
102
}
102
{ACAD_XDICTIONARY
360
276
102
}
330
2A
100
AcDbVisualStyle
  2
GouraudWithEdges
 70
     3
 71
     2
 72
     2
 73
     1
 90
        2
 40
-0.6
 41
30.0
 62
     5
 63
     7
 74
     1
 91
        4
 64
     7
 65
   257
 75
     1
175
     1
 42
1.0
 92
        0
 66
   257
 43
1.0
 76
     1
 77
     6
 78
     2
 67
     7
 79
     5
170
     0
171
     0
290
     0
174
     0
 93
       13
 44
0.0
173
     0
291
     1
 45
0.0
1001
ACAD
1000
AcDbSavedByObjectVersion
1070
     0
  0
VISUALSTYLE
  5
38
102
{ACAD_REACTORS
330
2A
102
}
102
{ACAD_XDICTIONARY
360
28A
102
}
330
2A
100
AcDbVisualStyle
  2
Linepattern
 70
    14
 71
     2
 72
     2
 73
     0
 90
        0
 40
-0.6
 41
-30.0
 62
     5
 63
     7
 74
     1
 91
        4
 64
     7
 65
   257
 75
     7
175
     7
 42
1.0
 92
        8
 66
     7
 43
1.0
 76
     1
 77
     6
 78
     2
 67
     7
 79
     5
170
     0
171
     0
290
     0
174
     0
 93
        1
 44
0.0
173
     0
291
     1
 45
0.0
1001
ACAD
1000
AcDbSavedByObjectVersion
1070
     0
  0
VISUALSTYLE
  5
33
102
{ACAD_REACTORS
330
2A
102
}
102
{ACAD_XDICTIONARY
360
280
102
}
330
2A
100
AcDbVisualStyle
  2
Realistic
 70
     8
 71
     2
 72
     2
 73
     0
 90
        0
 40
-0.6
 41
-30.0
 62
     5
 63
     7
 74
     1
 91
        0
 64
     7
 65
   257
 75
     1
175
     1
 42
1.0
 92
        8
 66
     8
 43
1.0
 76
     1
 77
     6
 78
     2
 67
     7
 79
     5
170
     0
171
     0
290
     0
174
     0
 93
       13
 44
0.0
173
     0
291
     0
 45
0.0
1001
ACAD
1000
AcDbSavedByObjectVersion
1070
     0
  0
VISUALSTYLE
  5
37
102
{ACAD_REACTORS
330
2A
102
}
102
{ACAD_XDICTIONARY
360
288
102
}
330
2A
100
AcDbVisualStyle
  2
Thicken
 70
    13
 71
     2
 72
     2
 73
     0
 90
        0
 40
-0.6
 41
-30.0
 62
     5
 63
     7
 74
     1
 91
        4
 64
     7
 65
   257
 75
     1
175
     1
 42
1.0
 92
       12
 66
     7
 43
1.0
 76
     1
 77
     6
 78
     2
 67
     7
 79
     5
170
     0
171
     0
290
     0
174
     0
 93
        1
 44
0.0
173
     0
291
     1
 45
0.0
1001
ACAD
1000
AcDbSavedByObjectVersion
1070
     0
  0
DICTIONARYVAR
  5
26D
102
{ACAD_REACTORS
330
26A
102
}
330
26A
100
DictionaryVariables
280
     0
  1
1:1
  0
DICTIONARYVAR
  5
26E
102
{ACAD_REACTORS
330
26A
102
}
330
26A
100
DictionaryVariables
280
     0
  1
2
  0
DICTIONARYVAR
  5
26F
102
{ACAD_REACTORS
330
26A
102
}
330
26A
100
DictionaryVariables
280
     0
  1
1
  0
DICTIONARY
  5
292
330
3D
100
AcDbDictionary
280
     1
281
     1
  3
ACAD_XREC_ROUNDTRIP
360
293
  0
DICTIONARY
  5
290
330
3C
100
AcDbDictionary
280
     1
281
     1
  3
ACAD_XREC_ROUNDTRIP
360
291
  0
DICTIONARY
  5
294
330
3E
100
AcDbDictionary
280
     1
281
     1
  3
ACAD_XREC_ROUNDTRIP
360
295
  0
DICTIONARY
  5
278
330
2F
100
AcDbDictionary
280
     1
281
     1
  3
ACAD_XREC_ROUNDTRIP
360
279
  0
DICTIONARY
  5
27C
330
31
100
AcDbDictionary
280
     1
281
     1
  3
ACAD_XREC_ROUNDTRIP
360
27D
  0
DICTIONARY
  5
27A
330
30
100
AcDbDictionary
280
     1
281
     1
  3
ACAD_XREC_ROUNDTRIP
360
27B
  0
DICTIONARY
  5
27E
330
32
100
AcDbDictionary
280
     1
281
     1
  3
ACAD_XREC_ROUNDTRIP
360
27F
  0
DICTIONARY
  5
286
330
36
100
AcDbDictionary
280
     1
281
     1
  3
ACAD_XREC_ROUNDTRIP
360
287
  0
DICTIONARY
  5
28E
330
3A
100
AcDbDictionary
280
     1
281
     1
  3
ACAD_XREC_ROUNDTRIP
360
28F
  0
DICTIONARY
  5
282
330
34
100
AcDbDictionary
280
     1
281
     1
  3
ACAD_XREC_ROUNDTRIP
360
283
  0
DICTIONARY
  5
284
330
35
100
AcDbDictionary
280
     1
281
     1
  3
ACAD_XREC_ROUNDTRIP
360
285
  0
DICTIONARY
  5
28C
330
39
100
AcDbDictionary
280
     1
281
     1
  3
ACAD_XREC_ROUNDTRIP
360
28D
  0
DICTIONARY
  5
270
330
2B
100
AcDbDictionary
280
     1
281
     1
  3
ACAD_XREC_ROUNDTRIP
360
271
  0
DICTIONARY
  5
272
330
2C
100
AcDbDictionary
280
     1
281
     1
  3
ACAD_XREC_ROUNDTRIP
360
273
  0
DICTIONARY
  5
274
330
2D
100
AcDbDictionary
280
     1
281
     1
  3
ACAD_XREC_ROUNDTRIP
360
275
  0
DICTIONARY
  5
276
330
2E
100
AcDbDictionary
280
     1
281
     1
  3
ACAD_XREC_ROUNDTRIP
360
277
  0
DICTIONARY
  5
28A
330
38
100
AcDbDictionary
280
     1
281
     1
  3
ACAD_XREC_ROUNDTRIP
360
28B
  0
DICTIONARY
  5
280
330
33
100
AcDbDictionary
280
     1
281
     1
  3
ACAD_XREC_ROUNDTRIP
360
281
  0
DICTIONARY
  5
288
330
37
100
AcDbDictionary
280
     1
281
     1
  3
ACAD_XREC_ROUNDTRIP
360
289
  0
XRECORD
  5
293
102
{ACAD_REACTORS
330
292
102
}
330
292
100
AcDbXrecord
280
     1
102
MATERIAL
148
0.0
149
0.0
149
0.0
 93
        0
 94
      127
282
     0
 72
     1
 77
     1
171
     1
175
     1
179
     1
273
     0
  0
XRECORD
  5
291
102
{ACAD_REACTORS
330
290
102
}
330
290
100
AcDbXrecord
280
     1
102
MATERIAL
148
0.0
149
0.0
149
0.0
 93
        0
 94
      127
282
     0
 72
     1
 77
     1
171
     1
175
     1
179
     1
273
     0
  0
XRECORD
  5
295
102
{ACAD_REACTORS
330
294
102
}
330
294
100
AcDbXrecord
280
     1
102
MATERIAL
148
0.0
149
0.0
149
0.0
 93
        0
 94
      127
282
     0
 72
     1
 77
     1
171
     1
175
     1
179
     1
273
     0
  0
XRECORD
  5
279
102
{ACAD_REACTORS
330
278
102
}
330
278
100
AcDbXrecord
280
     1
102
RTVSPropertyOp0
 70
     1
102
RTVSPropertyOp1
 70
     1
102
RTVSPropertyOp2
 70
     1
102
RTVSPropertyOp3
 70
     1
102
RTVSPropertyOp4
 70
     1
102
RTVSPropertyOp5
 70
     1
102
RTVSPropertyOp6
 70
     1
102
RTVSPropertyOp7
 70
     1
102
RTVSPropertyOp8
 70
     1
102
RTVSPropertyOp9
 70
     1
102
RTVSPropertyOp10
 70
     1
102
RTVSPropertyOp11
 70
     1
102
RTVSPropertyOp12
 70
     1
102
RTVSPropertyOp13
 70
     1
102
RTVSPropertyOp14
 70
     1
102
RTVSPropertyOp15
 70
     1
102
RTVSPropertyOp16
 70
     1
102
RTVSPropertyOp17
 70
     1
102
RTVSPropertyOp18
 70
     1
102
RTVSPropertyOp19
 70
     1
102
RTVSPropertyOp20
 70
     1
102
RTVSPropertyOp21
 70
     1
102
RTVSPropertyOp22
 70
     1
102
RTVSPropertyOp23
 70
     1
102
RTVSPropertyOp24
 70
     1
102
RTVSPropertyOp25
 70
     1
102
RTVSPropertyOp26
 70
     1
102
RTVSPropertyOp27
 70
     1
  0
XRECORD
  5
27D
102
{ACAD_REACTORS
330
27C
102
}
330
27C
100
AcDbXrecord
280
     1
102
RTVSPropertyOp0
 70
     1
102
RTVSPropertyOp1
 70
     1
102
RTVSPropertyOp2
 70
     1
102
RTVSPropertyOp3
 70
     1
102
RTVSPropertyOp4
 70
     1
102
RTVSPropertyOp5
 70
     1
102
RTVSPropertyOp6
 70
     1
102
RTVSPropertyOp7
 70
     1
102
RTVSPropertyOp8
 70
     1
102
RTVSPropertyOp9
 70
     1
102
RTVSPropertyOp10
 70
     1
102
RTVSPropertyOp11
 70
     1
102
RTVSPropertyOp12
 70
     1
102
RTVSPropertyOp13
 70
     1
102
RTVSPropertyOp14
 70
     1
102
RTVSPropertyOp15
 70
     1
102
RTVSPropertyOp16
 70
     1
102
RTVSPropertyOp17
 70
     1
102
RTVSPropertyOp18
 70
     1
102
RTVSPropertyOp19
 70
     1
102
RTVSPropertyOp20
 70
     1
102
RTVSPropertyOp21
 70
     1
102
RTVSPropertyOp22
 70
     1
102
RTVSPropertyOp23
 70
     1
102
RTVSPropertyOp24
 70
     1
102
RTVSPropertyOp25
 70
     1
102
RTVSPropertyOp26
 70
     1
102
RTVSPropertyOp27
 70
     1
  0
XRECORD
  5
27B
102
{ACAD_REACTORS
330
27A
102
}
330
27A
100
AcDbXrecord
280
     1
102
RTVSPropertyOp0
 70
     1
102
RTVSPropertyOp1
 70
     1
102
RTVSPropertyOp2
 70
     1
102
RTVSPropertyOp3
 70
     1
102
RTVSPropertyOp4
 70
     1
102
RTVSPropertyOp5
 70
     1
102
RTVSPropertyOp6
 70
     1
102
RTVSPropertyOp7
 70
     1
102
RTVSPropertyOp8
 70
     1
102
RTVSPropertyOp9
 70
     1
102
RTVSPropertyOp10
 70
     1
102
RTVSPropertyOp11
 70
     1
102
RTVSPropertyOp12
 70
     1
102
RTVSPropertyOp13
 70
     1
102
RTVSPropertyOp14
 70
     1
102
RTVSPropertyOp15
 70
     1
102
RTVSPropertyOp16
 70
     1
102
RTVSPropertyOp17
 70
     1
102
RTVSPropertyOp18
 70
     1
102
RTVSPropertyOp19
 70
     1
102
RTVSPropertyOp20
 70
     1
102
RTVSPropertyOp21
 70
     1
102
RTVSPropertyOp22
 70
     1
102
RTVSPropertyOp23
 70
     1
102
RTVSPropertyOp24
 70
     1
102
RTVSPropertyOp25
 70
     1
102
RTVSPropertyOp26
 70
     1
102
RTVSPropertyOp27
 70
     1
  0
XRECORD
  5
27F
102
{ACAD_REACTORS
330
27E
102
}
330
27E
100
AcDbXrecord
280
     1
102
RTVSPropertyOp0
 70
     1
102
RTVSPropertyOp1
 70
     1
102
RTVSPropertyOp2
 70
     1
102
RTVSPropertyOp3
 70
     1
102
RTVSPropertyOp4
 70
     1
102
RTVSPropertyOp5
 70
     1
102
RTVSPropertyOp6
 70
     1
102
RTVSPropertyOp7
 70
     1
102
RTVSPropertyOp8
 70
     1
102
RTVSPropertyOp9
 70
     1
102
RTVSPropertyOp10
 70
     1
102
RTVSPropertyOp11
 70
     1
102
RTVSPropertyOp12
 70
     1
102
RTVSPropertyOp13
 70
     1
102
RTVSPropertyOp14
 70
     1
102
RTVSPropertyOp15
 70
     1
102
RTVSPropertyOp16
 70
     1
102
RTVSPropertyOp17
 70
     1
102
RTVSPropertyOp18
 70
     1
102
RTVSPropertyOp19
 70
     1
102
RTVSPropertyOp20
 70
     1
102
RTVSPropertyOp21
 70
     1
102
RTVSPropertyOp22
 70
     1
102
RTVSPropertyOp23
 70
     1
102
RTVSPropertyOp24
 70
     1
102
RTVSPropertyOp25
 70
     1
102
RTVSPropertyOp26
 70
     1
102
RTVSPropertyOp27
 70
     1
  0
XRECORD
  5
287
102
{ACAD_REACTORS
330
286
102
}
330
286
100
AcDbXrecord
280
     1
102
RTVSPropertyOp0
 70
     1
102
RTVSPropertyOp1
 70
     1
102
RTVSPropertyOp2
 70
     1
102
RTVSPropertyOp3
 70
     1
102
RTVSPropertyOp4
 70
     1
102
RTVSPropertyOp5
 70
     1
102
RTVSPropertyOp6
 70
     1
102
RTVSPropertyOp7
 70
     1
102
RTVSPropertyOp8
 70
     1
102
RTVSPropertyOp9
 70
     1
102
RTVSPropertyOp10
 70
     1
102
RTVSPropertyOp11
 70
     1
102
RTVSPropertyOp12
 70
     1
102
RTVSPropertyOp13
 70
     1
102
RTVSPropertyOp14
 70
     1
102
RTVSPropertyOp15
 70
     1
102
RTVSPropertyOp16
 70
     1
102
RTVSPropertyOp17
 70
     1
102
RTVSPropertyOp18
 70
     1
102
RTVSPropertyOp19
 70
     1
102
RTVSPropertyOp20
 70
     1
102
RTVSPropertyOp21
 70
     1
102
RTVSPropertyOp22
 70
     1
102
RTVSPropertyOp23
 70
     1
102
RTVSPropertyOp24
 70
     1
102
RTVSPropertyOp25
 70
     1
102
RTVSPropertyOp26
 70
     1
102
RTVSPropertyOp27
 70
     1
  0
XRECORD
  5
28F
102
{ACAD_REACTORS
330
28E
102
}
330
28E
100
AcDbXrecord
280
     1
102
RTVSPropertyOp0
 70
     1
102
RTVSPropertyOp1
 70
     1
102
RTVSPropertyOp2
 70
     1
102
RTVSPropertyOp3
 70
     1
102
RTVSPropertyOp4
 70
     1
102
RTVSPropertyOp5
 70
     1
102
RTVSPropertyOp6
 70
     1
102
RTVSPropertyOp7
 70
     1
102
RTVSPropertyOp8
 70
     1
102
RTVSPropertyOp9
 70
     1
102
RTVSPropertyOp10
 70
     1
102
RTVSPropertyOp11
 70
     1
102
RTVSPropertyOp12
 70
     1
102
RTVSPropertyOp13
 70
     1
102
RTVSPropertyOp14
 70
     1
102
RTVSPropertyOp15
 70
     1
102
RTVSPropertyOp16
 70
     1
102
RTVSPropertyOp17
 70
     1
102
RTVSPropertyOp18
 70
     1
102
RTVSPropertyOp19
 70
     1
102
RTVSPropertyOp20
 70
     1
102
RTVSPropertyOp21
 70
     1
102
RTVSPropertyOp22
 70
     1
102
RTVSPropertyOp23
 70
     1
102
RTVSPropertyOp24
 70
     1
102
RTVSPropertyOp25
 70
     1
102
RTVSPropertyOp26
 70
     1
102
RTVSPropertyOp27
 70
     1
  0
XRECORD
  5
283
102
{ACAD_REACTORS
330
282
102
}
330
282
100
AcDbXrecord
280
     1
102
RTVSPropertyOp0
 70
     1
102
RTVSPropertyOp1
 70
     1
102
RTVSPropertyOp2
 70
     1
102
RTVSPropertyOp3
 70
     1
102
RTVSPropertyOp4
 70
     1
102
RTVSPropertyOp5
 70
     1
102
RTVSPropertyOp6
 70
     1
102
RTVSPropertyOp7
 70
     1
102
RTVSPropertyOp8
 70
     1
102
RTVSPropertyOp9
 70
     1
102
RTVSPropertyOp10
 70
     1
102
RTVSPropertyOp11
 70
     1
102
RTVSPropertyOp12
 70
     1
102
RTVSPropertyOp13
 70
     1
102
RTVSPropertyOp14
 70
     1
102
RTVSPropertyOp15
 70
     1
102
RTVSPropertyOp16
 70
     1
102
RTVSPropertyOp17
 70
     1
102
RTVSPropertyOp18
 70
     1
102
RTVSPropertyOp19
 70
     1
102
RTVSPropertyOp20
 70
     1
102
RTVSPropertyOp21
 70
     1
102
RTVSPropertyOp22
 70
     1
102
RTVSPropertyOp23
 70
     1
102
RTVSPropertyOp24
 70
     1
102
RTVSPropertyOp25
 70
     1
102
RTVSPropertyOp26
 70
     1
102
RTVSPropertyOp27
 70
     1
  0
XRECORD
  5
285
102
{ACAD_REACTORS
330
284
102
}
330
284
100
AcDbXrecord
280
     1
102
RTVSPropertyOp0
 70
     1
102
RTVSPropertyOp1
 70
     1
102
RTVSPropertyOp2
 70
     1
102
RTVSPropertyOp3
 70
     1
102
RTVSPropertyOp4
 70
     1
102
RTVSPropertyOp5
 70
     1
102
RTVSPropertyOp6
 70
     1
102
RTVSPropertyOp7
 70
     1
102
RTVSPropertyOp8
 70
     1
102
RTVSPropertyOp9
 70
     1
102
RTVSPropertyOp10
 70
     1
102
RTVSPropertyOp11
 70
     1
102
RTVSPropertyOp12
 70
     1
102
RTVSPropertyOp13
 70
     1
102
RTVSPropertyOp14
 70
     1
102
RTVSPropertyOp15
 70
     1
102
RTVSPropertyOp16
 70
     1
102
RTVSPropertyOp17
 70
     1
102
RTVSPropertyOp18
 70
     1
102
RTVSPropertyOp19
 70
     1
102
RTVSPropertyOp20
 70
     1
102
RTVSPropertyOp21
 70
     1
102
RTVSPropertyOp22
 70
     1
102
RTVSPropertyOp23
 70
     1
102
RTVSPropertyOp24
 70
     1
102
RTVSPropertyOp25
 70
     1
102
RTVSPropertyOp26
 70
     1
102
RTVSPropertyOp27
 70
     1
  0
XRECORD
  5
28D
102
{ACAD_REACTORS
330
28C
102
}
330
28C
100
AcDbXrecord
280
     1
102
RTVSPropertyOp0
 70
     1
102
RTVSPropertyOp1
 70
     1
102
RTVSPropertyOp2
 70
     1
102
RTVSPropertyOp3
 70
     1
102
RTVSPropertyOp4
 70
     1
102
RTVSPropertyOp5
 70
     1
102
RTVSPropertyOp6
 70
     1
102
RTVSPropertyOp7
 70
     1
102
RTVSPropertyOp8
 70
     1
102
RTVSPropertyOp9
 70
     1
102
RTVSPropertyOp10
 70
     1
102
RTVSPropertyOp11
 70
     1
102
RTVSPropertyOp12
 70
     1
102
RTVSPropertyOp13
 70
     1
102
RTVSPropertyOp14
 70
     1
102
RTVSPropertyOp15
 70
     1
102
RTVSPropertyOp16
 70
     1
102
RTVSPropertyOp17
 70
     1
102
RTVSPropertyOp18
 70
     1
102
RTVSPropertyOp19
 70
     1
102
RTVSPropertyOp20
 70
     1
102
RTVSPropertyOp21
 70
     1
102
RTVSPropertyOp22
 70
     1
102
RTVSPropertyOp23
 70
     1
102
RTVSPropertyOp24
 70
     1
102
RTVSPropertyOp25
 70
     1
102
RTVSPropertyOp26
 70
     1
102
RTVSPropertyOp27
 70
     1
  0
XRECORD
  5
271
102
{ACAD_REACTORS
330
270
102
}
330
270
100
AcDbXrecord
280
     1
102
RTVSPropertyOp0
 70
     1
102
RTVSPropertyOp1
 70
     1
102
RTVSPropertyOp2
 70
     1
102
RTVSPropertyOp3
 70
     1
102
RTVSPropertyOp4
 70
     1
102
RTVSPropertyOp5
 70
     1
102
RTVSPropertyOp6
 70
     1
102
RTVSPropertyOp7
 70
     1
102
RTVSPropertyOp8
 70
     1
102
RTVSPropertyOp9
 70
     1
102
RTVSPropertyOp10
 70
     1
102
RTVSPropertyOp11
 70
     1
102
RTVSPropertyOp12
 70
     1
102
RTVSPropertyOp13
 70
     1
102
RTVSPropertyOp14
 70
     1
102
RTVSPropertyOp15
 70
     1
102
RTVSPropertyOp16
 70
     1
102
RTVSPropertyOp17
 70
     1
102
RTVSPropertyOp18
 70
     1
102
RTVSPropertyOp19
 70
     1
102
RTVSPropertyOp20
 70
     1
102
RTVSPropertyOp21
 70
     1
102
RTVSPropertyOp22
 70
     1
102
RTVSPropertyOp23
 70
     1
102
RTVSPropertyOp24
 70
     1
102
RTVSPropertyOp25
 70
     1
102
RTVSPropertyOp26
 70
     1
102
RTVSPropertyOp27
 70
     1
  0
XRECORD
  5
273
102
{ACAD_REACTORS
330
272
102
}
330
272
100
AcDbXrecord
280
     1
102
RTVSPropertyOp0
 70
     1
102
RTVSPropertyOp1
 70
     1
102
RTVSPropertyOp2
 70
     1
102
RTVSPropertyOp3
 70
     1
102
RTVSPropertyOp4
 70
     1
102
RTVSPropertyOp5
 70
     1
102
RTVSPropertyOp6
 70
     1
102
RTVSPropertyOp7
 70
     1
102
RTVSPropertyOp8
 70
     1
102
RTVSPropertyOp9
 70
     1
102
RTVSPropertyOp10
 70
     1
102
RTVSPropertyOp11
 70
     1
102
RTVSPropertyOp12
 70
     1
102
RTVSPropertyOp13
 70
     1
102
RTVSPropertyOp14
 70
     1
102
RTVSPropertyOp15
 70
     1
102
RTVSPropertyOp16
 70
     1
102
RTVSPropertyOp17
 70
     1
102
RTVSPropertyOp18
 70
     1
102
RTVSPropertyOp19
 70
     1
102
RTVSPropertyOp20
 70
     1
102
RTVSPropertyOp21
 70
     1
102
RTVSPropertyOp22
 70
     1
102
RTVSPropertyOp23
 70
     1
102
RTVSPropertyOp24
 70
     1
102
RTVSPropertyOp25
 70
     1
102
RTVSPropertyOp26
 70
     1
102
RTVSPropertyOp27
 70
     1
  0
XRECORD
  5
275
102
{ACAD_REACTORS
330
274
102
}
330
274
100
AcDbXrecord
280
     1
102
RTVSPropertyOp0
 70
     1
102
RTVSPropertyOp1
 70
     1
102
RTVSPropertyOp2
 70
     1
102
RTVSPropertyOp3
 70
     1
102
RTVSPropertyOp4
 70
     1
102
RTVSPropertyOp5
 70
     1
102
RTVSPropertyOp6
 70
     1
102
RTVSPropertyOp7
 70
     1
102
RTVSPropertyOp8
 70
     1
102
RTVSPropertyOp9
 70
     1
102
RTVSPropertyOp10
 70
     1
102
RTVSPropertyOp11
 70
     1
102
RTVSPropertyOp12
 70
     1
102
RTVSPropertyOp13
 70
     1
102
RTVSPropertyOp14
 70
     1
102
RTVSPropertyOp15
 70
     1
102
RTVSPropertyOp16
 70
     1
102
RTVSPropertyOp17
 70
     1
102
RTVSPropertyOp18
 70
     1
102
RTVSPropertyOp19
 70
     1
102
RTVSPropertyOp20
 70
     1
102
RTVSPropertyOp21
 70
     1
102
RTVSPropertyOp22
 70
     1
102
RTVSPropertyOp23
 70
     1
102
RTVSPropertyOp24
 70
     1
102
RTVSPropertyOp25
 70
     1
102
RTVSPropertyOp26
 70
     1
102
RTVSPropertyOp27
 70
     1
  0
XRECORD
  5
277
102
{ACAD_REACTORS
330
276
102
}
330
276
100
AcDbXrecord
280
     1
102
RTVSPropertyOp0
 70
     1
102
RTVSPropertyOp1
 70
     1
102
RTVSPropertyOp2
 70
     1
102
RTVSPropertyOp3
 70
     1
102
RTVSPropertyOp4
 70
     1
102
RTVSPropertyOp5
 70
     1
102
RTVSPropertyOp6
 70
     1
102
RTVSPropertyOp7
 70
     1
102
RTVSPropertyOp8
 70
     1
102
RTVSPropertyOp9
 70
     1
102
RTVSPropertyOp10
 70
     1
102
RTVSPropertyOp11
 70
     1
102
RTVSPropertyOp12
 70
     1
102
RTVSPropertyOp13
 70
     1
102
RTVSPropertyOp14
 70
     1
102
RTVSPropertyOp15
 70
     1
102
RTVSPropertyOp16
 70
     1
102
RTVSPropertyOp17
 70
     1
102
RTVSPropertyOp18
 70
     1
102
RTVSPropertyOp19
 70
     1
102
RTVSPropertyOp20
 70
     1
102
RTVSPropertyOp21
 70
     1
102
RTVSPropertyOp22
 70
     1
102
RTVSPropertyOp23
 70
     1
102
RTVSPropertyOp24
 70
     1
102
RTVSPropertyOp25
 70
     1
102
RTVSPropertyOp26
 70
     1
102
RTVSPropertyOp27
 70
     1
  0
XRECORD
  5
28B
102
{ACAD_REACTORS
330
28A
102
}
330
28A
100
AcDbXrecord
280
     1
102
RTVSPropertyOp0
 70
     1
102
RTVSPropertyOp1
 70
     1
102
RTVSPropertyOp2
 70
     1
102
RTVSPropertyOp3
 70
     1
102
RTVSPropertyOp4
 70
     1
102
RTVSPropertyOp5
 70
     1
102
RTVSPropertyOp6
 70
     1
102
RTVSPropertyOp7
 70
     1
102
RTVSPropertyOp8
 70
     1
102
RTVSPropertyOp9
 70
     1
102
RTVSPropertyOp10
 70
     1
102
RTVSPropertyOp11
 70
     1
102
RTVSPropertyOp12
 70
     1
102
RTVSPropertyOp13
 70
     1
102
RTVSPropertyOp14
 70
     1
102
RTVSPropertyOp15
 70
     1
102
RTVSPropertyOp16
 70
     1
102
RTVSPropertyOp17
 70
     1
102
RTVSPropertyOp18
 70
     1
102
RTVSPropertyOp19
 70
     1
102
RTVSPropertyOp20
 70
     1
102
RTVSPropertyOp21
 70
     1
102
RTVSPropertyOp22
 70
     1
102
RTVSPropertyOp23
 70
     1
102
RTVSPropertyOp24
 70
     1
102
RTVSPropertyOp25
 70
     1
102
RTVSPropertyOp26
 70
     1
102
RTVSPropertyOp27
 70
     1
  0
XRECORD
  5
281
102
{ACAD_REACTORS
330
280
102
}
330
280
100
AcDbXrecord
280
     1
102
RTVSPropertyOp0
 70
     1
102
RTVSPropertyOp1
 70
     1
102
RTVSPropertyOp2
 70
     1
102
RTVSPropertyOp3
 70
     1
102
RTVSPropertyOp4
 70
     1
102
RTVSPropertyOp5
 70
     1
102
RTVSPropertyOp6
 70
     1
102
RTVSPropertyOp7
 70
     1
102
RTVSPropertyOp8
 70
     1
102
RTVSPropertyOp9
 70
     1
102
RTVSPropertyOp10
 70
     1
102
RTVSPropertyOp11
 70
     1
102
RTVSPropertyOp12
 70
     1
102
RTVSPropertyOp13
 70
     1
102
RTVSPropertyOp14
 70
     1
102
RTVSPropertyOp15
 70
     1
102
RTVSPropertyOp16
 70
     1
102
RTVSPropertyOp17
 70
     1
102
RTVSPropertyOp18
 70
     1
102
RTVSPropertyOp19
 70
     1
102
RTVSPropertyOp20
 70
     1
102
RTVSPropertyOp21
 70
     1
102
RTVSPropertyOp22
 70
     1
102
RTVSPropertyOp23
 70
     1
102
RTVSPropertyOp24
 70
     1
102
RTVSPropertyOp25
 70
     1
102
RTVSPropertyOp26
 70
     1
102
RTVSPropertyOp27
 70
     1
  0
XRECORD
  5
289
102
{ACAD_REACTORS
330
288
102
}
330
288
100
AcDbXrecord
280
     1
102
RTVSPropertyOp0
 70
     1
102
RTVSPropertyOp1
 70
     1
102
RTVSPropertyOp2
 70
     1
102
RTVSPropertyOp3
 70
     1
102
RTVSPropertyOp4
 70
     1
102
RTVSPropertyOp5
 70
     1
102
RTVSPropertyOp6
 70
     1
102
RTVSPropertyOp7
 70
     1
102
RTVSPropertyOp8
 70
     1
102
RTVSPropertyOp9
 70
     1
102
RTVSPropertyOp10
 70
     1
102
RTVSPropertyOp11
 70
     1
102
RTVSPropertyOp12
 70
     1
102
RTVSPropertyOp13
 70
     1
102
RTVSPropertyOp14
 70
     1
102
RTVSPropertyOp15
 70
     1
102
RTVSPropertyOp16
 70
     1
102
RTVSPropertyOp17
 70
     1
102
RTVSPropertyOp18
 70
     1
102
RTVSPropertyOp19
 70
     1
102
RTVSPropertyOp20
 70
     1
102
RTVSPropertyOp21
 70
     1
102
RTVSPropertyOp22
 70
     1
102
RTVSPropertyOp23
 70
     1
102
RTVSPropertyOp24
 70
     1
102
RTVSPropertyOp25
 70
     1
102
RTVSPropertyOp26
 70
     1
102
RTVSPropertyOp27
 70
     1
  0
ENDSEC
  0
EOF
